Статистика раздачи
Размер:  219 MB   |    Зарегистрирован:  3 месяца 4 дня   |    Скачан:  0 раз

Полного источника не было: Никогда

Личеров:  1  [  0 KB/s  ]  
 
   
 
 

duda ®

Пол:
Не указан
Стаж:
3 месяца 9 дней
Сообщений:
190

«Sredets» Chamber Choir - Medieval Voices (Bulgarian Orthodox Music)
Жанр: Bulgarian Orthodox Music
Носитель: CD
Страна-производитель диска (релиза): EU
Год издания: 1999
Издатель (лейбл): Harmony HM035 / Prestige Records HM035
Номер по каталогу: HM035
Страна исполнителя (группы): Болгария
Аудиокодек: FLAC (*.flac)
Тип рипа: tracks+.cue
Битрейт аудио: lossless
Продолжительность: 01:12:03
Источник (релизер): собственный рип
Наличие сканов в содержимом раздачи: да
Треклист:
1. Slava Otsu [4:25]
2. Stijera for Good Tuesday [2:02]
3. Leto i Wesnu [2:52]
4. Kratema [3:50]
5. Vsyakoe Dihanie [4:00]
6. Voskresni Bozhe [5:31]
7. Glassom Moim [2:35]
8. Ne Otvrati Litsa [3:45]
9. Dostoino Est [3:02]
10. Slavoslovie [3:50]
11. Svetisja [1:30]
12. Bog Gospod [2:06]
13. Blagoslovi Dushe Moya, Gospodi [14:04]
14. Slavi i Nine Edinorodny Sine [3:17]
15. Cherubikon [7:07]
16. Rozhdestvo Tvoe [2:06]
17. O Tebe Raduetsya [3:00]
18. Elitzi Vo Hrista Krestitesya [2:10]

Лог создания рипа

Exact Audio Copy V1.1 from 23. June 2015
EAC extraction logfile from 17. February 2017, 9:09
"Sredets" Chamber Choir, Sofia / Medieval Voices, Bulgarian Orthodox Music
Used drive : PLEXTOR DVDR PX-L890SA Adapter: 1 ID: 1
Read mode : Secure
Utilize accurate stream : Yes
Defeat audio cache : Yes
Make use of C2 pointers : No
Read offset correction : 6
Overread into Lead-In and Lead-Out : No
Fill up missing offset samples with silence : Yes
Delete leading and trailing silent blocks : No
Null samples used in CRC calculations : Yes
Used interface : Native Win32 interface for Win NT & 2000
Gap handling : Appended to previous track
Used output format : User Defined Encoder
Selected bitrate : 1024 kBit/s
Quality : High
Add ID3 tag : Yes
Command line compressor : C:\Program Files (x86)\Exact Audio Copy\FLAC\FLAC.EXE
Additional command line options : -8 -V -T "ARTIST=%artist%" -T "TITLE=%title%" -T "ALBUM=%albumtitle%" -T "DATE=%year%" -T "TRACKNUMBER=%tracknr%" -T "GENRE=%genre%" -T "COMMENT=EAC FLAC 1.2.1 -8" %source%
TOC of the extracted CD
Track | Start | Length | Start sector | End sector
---------------------------------------------------------
1 | 0:00.00 | 4:29.30 | 0 | 20204
2 | 4:29.30 | 2:12.74 | 20205 | 30178
3 | 6:42.29 | 2:57.44 | 30179 | 43497
4 | 9:39.73 | 3:56.42 | 43498 | 61239
5 | 13:36.40 | 4:01.49 | 61240 | 79363
6 | 17:38.14 | 5:37.38 | 79364 | 104676
7 | 23:15.52 | 2:40.29 | 104677 | 116705
8 | 25:56.06 | 3:48.52 | 116706 | 133857
9 | 29:44.58 | 3:07.05 | 133858 | 147887
10 | 32:51.63 | 3:23.05 | 147888 | 163117
11 | 36:14.68 | 2:12.64 | 163118 | 173081
12 | 38:27.57 | 1:23.07 | 173082 | 179313
13 | 39:50.64 | 4:09.17 | 179314 | 198005
14 | 44:00.06 | 3:20.19 | 198006 | 213024
15 | 47:20.25 | 7:31.56 | 213025 | 246905
16 | 54:52.06 | 2:12.36 | 246906 | 256841
17 | 57:04.42 | 2:35.48 | 256842 | 268514
18 | 59:40.15 | 2:06.37 | 268515 | 278001
Track 1
Filename E:\Medieval Voices\01 Slava Otzu.wav
Pre-gap length 0:00:02.00
Peak level 56.0 %
Extraction speed 3.4 X
Track quality 100.0 %
Test CRC 17FF5651
Copy CRC 17FF5651
Accurately ripped (confidence 1) [22DB40FF] (AR v2)
Copy OK
Track 2
Filename E:\Medieval Voices\02 Stijera For Good Tuesday.wav
Pre-gap length 0:00:02.35
Peak level 56.2 %
Extraction speed 3.3 X
Track quality 100.0 %
Test CRC B3A9AAA5
Copy CRC B3A9AAA5
Accurately ripped (confidence 1) [45961D17] (AR v2)
Copy OK
Track 3
Filename E:\Medieval Voices\03 Leto I Wesnu.wav
Pre-gap length 0:00:02.35
Peak level 52.1 %
Extraction speed 2.8 X
Track quality 99.9 %
Test CRC 6EBBA15D
Copy CRC 6EBBA15D
Accurately ripped (confidence 1) [75BC1589] (AR v2)
Copy OK
Track 4
Filename E:\Medieval Voices\04 Kratema.wav
Pre-gap length 0:00:02.35
Peak level 44.6 %
Extraction speed 4.1 X
Track quality 100.0 %
Test CRC A38FF92B
Copy CRC A38FF92B
Accurately ripped (confidence 1) [D8652E82] (AR v2)
Copy OK
Track 5
Filename E:\Medieval Voices\05 Vsyakoe Dichanie.wav
Pre-gap length 0:00:02.35
Peak level 23.1 %
Extraction speed 3.6 X
Track quality 99.9 %
Test CRC 6FA203A9
Copy CRC 6FA203A9
Accurately ripped (confidence 1) [4DFA850F] (AR v2)
Copy OK
Track 6
Filename E:\Medieval Voices\06 Voskresni Bozhe.wav
Pre-gap length 0:00:02.35
Peak level 36.0 %
Extraction speed 5.0 X
Track quality 100.0 %
Test CRC 978B4193
Copy CRC 978B4193
Accurately ripped (confidence 1) [8312D715] (AR v2)
Copy OK
Track 7
Filename E:\Medieval Voices\07 Glassom Moim.wav
Pre-gap length 0:00:02.35
Peak level 39.6 %
Extraction speed 4.7 X
Track quality 100.0 %
Test CRC 7401EB66
Copy CRC 7401EB66
Accurately ripped (confidence 1) [886AE36B] (AR v2)
Copy OK
Track 8
Filename E:\Medieval Voices\08 Ne Otvrati Litsa.wav
Pre-gap length 0:00:02.35
Peak level 27.1 %
Extraction speed 5.2 X
Track quality 100.0 %
Test CRC 29B935A3
Copy CRC 29B935A3
Accurately ripped (confidence 1) [DC7F500E] (AR v2)
Copy OK
Track 9
Filename E:\Medieval Voices\09 Dostoino Est.wav
Pre-gap length 0:00:02.35
Peak level 20.2 %
Extraction speed 5.2 X
Track quality 100.0 %
Test CRC 78A25CC2
Copy CRC 78A25CC2
Accurately ripped (confidence 1) [2773605C] (AR v2)
Copy OK
Track 10
Filename E:\Medieval Voices\10 Slavoslovie.wav
Pre-gap length 0:00:02.35
Peak level 49.2 %
Extraction speed 5.4 X
Track quality 100.0 %
Test CRC 773E85BF
Copy CRC 773E85BF
Accurately ripped (confidence 1) [99E9E751] (AR v2)
Copy OK
Track 11
Filename E:\Medieval Voices\11 Svetisja.wav
Pre-gap length 0:00:02.35
Peak level 49.0 %
Extraction speed 5.2 X
Track quality 100.0 %
Test CRC 4FB81E0B
Copy CRC 4FB81E0B
Accurately ripped (confidence 1) [E1203A6F] (AR v2)
Copy OK
Track 12
Filename E:\Medieval Voices\12 Bog Gospod.wav
Pre-gap length 0:00:02.35
Peak level 52.5 %
Extraction speed 4.6 X
Track quality 100.0 %
Test CRC 3DB8634A
Copy CRC 3DB8634A
Accurately ripped (confidence 1) [81C116D6] (AR v2)
Copy OK
Track 13
Filename E:\Medieval Voices\13 Blagoslovi Dushe Moya, Gos Podi.wav
Pre-gap length 0:00:02.35
Peak level 62.1 %
Extraction speed 5.9 X
Track quality 100.0 %
Test CRC 551CF213
Copy CRC 551CF213
Accurately ripped (confidence 1) [1C344F90] (AR v2)
Copy OK
Track 14
Filename E:\Medieval Voices\14 Slavi I Nine. Edinorodny Sine.wav
Pre-gap length 0:00:02.35
Peak level 63.9 %
Extraction speed 5.9 X
Track quality 100.0 %
Test CRC B69A070E
Copy CRC B69A070E
Accurately ripped (confidence 1) [68BFDA66] (AR v2)
Copy OK
Track 15
Filename E:\Medieval Voices\15 Cherubikon.wav
Pre-gap length 0:00:02.35
Peak level 59.1 %
Extraction speed 6.8 X
Track quality 100.0 %
Test CRC FC93758C
Copy CRC FC93758C
Accurately ripped (confidence 1) [D0C1FDF8] (AR v2)
Copy OK
Track 16
Filename E:\Medieval Voices\16 Rozhdestvo Tvoe.wav
Pre-gap length 0:00:02.35
Peak level 74.0 %
Extraction speed 4.2 X
Track quality 99.9 %
Test CRC 92CDD93B
Copy CRC 92CDD93B
Accurately ripped (confidence 1) [FEC5AB14] (AR v2)
Copy OK
Track 17
Filename E:\Medieval Voices\17 O Tebe Raduetsya.wav
Pre-gap length 0:00:02.35
Peak level 65.5 %
Extraction speed 6.1 X
Track quality 100.0 %
Test CRC A3431A8F
Copy CRC A3431A8F
Accurately ripped (confidence 1) [3DAFB2AB] (AR v2)
Copy OK
Track 18
Filename E:\Medieval Voices\18 Elitzi Vo Hrista Krestitesya.wav
Pre-gap length 0:00:02.35
Peak level 58.9 %
Extraction speed 4.2 X
Track quality 99.9 %
Test CRC 1E02D670
Copy CRC 1E02D670
Accurately ripped (confidence 2) [190F3D8D] (AR v2)
Copy OK
All tracks accurately ripped
No errors occurred
End of status report
---- CUETools DB Plugin V2.1.6
[CTDB TOCID: KRv._5OLCICp512GjBgZHsbjFtc-] found
Submit result: KRv._5OLCICp512GjBgZHsbjFtc- has been confirmed
Track | CTDB Status
1 | (2/2) Accurately ripped
2 | (2/2) Accurately ripped
3 | (2/2) Accurately ripped
4 | (2/2) Accurately ripped
5 | (2/2) Accurately ripped
6 | (2/2) Accurately ripped
7 | (2/2) Accurately ripped
8 | (2/2) Accurately ripped
9 | (2/2) Accurately ripped
10 | (2/2) Accurately ripped
11 | (2/2) Accurately ripped
12 | (2/2) Accurately ripped
13 | (2/2) Accurately ripped
14 | (2/2) Accurately ripped
15 | (2/2) Accurately ripped
16 | (2/2) Accurately ripped
17 | (2/2) Accurately ripped
18 | (2/2) Accurately ripped
==== Log checksum 030858F154DB8BB21E9C1A912F003EF96A2307A6A49C6E2F385179638EBA2316 ====

Содержание индексной карты (.CUE)

REM GENRE "Chamber Music"
REM DISCID 0B0E7A12
REM COMMENT "ExactAudioCopy v1.1"
PERFORMER "'Sredets' Chamber Choir, Sofia"
TITLE "Medieval Voices, Bulgarian Orthodox Music"
FILE "01 Slava Otzu.wav" WAVE
TRACK 01 AUDIO
TITLE "Slava Otzu"
PERFORMER "'Sredets' Chamber Choir, Sofia"
INDEX 01 00:00:00
TRACK 02 AUDIO
TITLE "Stijera For Good Tuesday"
PERFORMER "'Sredets' Chamber Choir, Sofia"
INDEX 00 04:26:70
FILE "02 Stijera For Good Tuesday.wav" WAVE
INDEX 01 00:00:00
TRACK 03 AUDIO
TITLE "Leto I Wesnu"
PERFORMER "'Sredets' Chamber Choir, Sofia"
INDEX 00 02:10:39
FILE "03 Leto I Wesnu.wav" WAVE
INDEX 01 00:00:00
TRACK 04 AUDIO
TITLE "Kratema"
PERFORMER "'Sredets' Chamber Choir, Sofia"
INDEX 00 02:55:09
FILE "04 Kratema.wav" WAVE
INDEX 01 00:00:00
TRACK 05 AUDIO
TITLE "Vsyakoe Dichanie"
PERFORMER "'Sredets' Chamber Choir, Sofia"
INDEX 00 03:54:07
FILE "05 Vsyakoe Dichanie.wav" WAVE
INDEX 01 00:00:00
TRACK 06 AUDIO
TITLE "Voskresni Bozhe"
PERFORMER "'Sredets' Chamber Choir, Sofia"
INDEX 00 03:59:14
FILE "06 Voskresni Bozhe.wav" WAVE
INDEX 01 00:00:00
TRACK 07 AUDIO
TITLE "Glassom Moim"
PERFORMER "'Sredets' Chamber Choir, Sofia"
INDEX 00 05:35:03
FILE "07 Glassom Moim.wav" WAVE
INDEX 01 00:00:00
TRACK 08 AUDIO
TITLE "Ne Otvrati Litsa"
PERFORMER "'Sredets' Chamber Choir, Sofia"
INDEX 00 02:37:69
FILE "08 Ne Otvrati Litsa.wav" WAVE
INDEX 01 00:00:00
TRACK 09 AUDIO
TITLE "Dostoino Est"
PERFORMER "'Sredets' Chamber Choir, Sofia"
INDEX 00 03:46:17
FILE "09 Dostoino Est.wav" WAVE
INDEX 01 00:00:00
TRACK 10 AUDIO
TITLE "Slavoslovie"
PERFORMER "'Sredets' Chamber Choir, Sofia"
INDEX 00 03:04:45
FILE "10 Slavoslovie.wav" WAVE
INDEX 01 00:00:00
TRACK 11 AUDIO
TITLE "Svetisja"
PERFORMER "'Sredets' Chamber Choir, Sofia"
INDEX 00 03:20:45
FILE "11 Svetisja.wav" WAVE
INDEX 01 00:00:00
TRACK 12 AUDIO
TITLE "Bog Gospod"
PERFORMER "'Sredets' Chamber Choir, Sofia"
INDEX 00 02:10:29
FILE "12 Bog Gospod.wav" WAVE
INDEX 01 00:00:00
TRACK 13 AUDIO
TITLE "Blagoslovi Dushe Moya, Gos Podi"
PERFORMER "'Sredets' Chamber Choir, Sofia"
INDEX 00 01:20:47
FILE "13 Blagoslovi Dushe Moya, Gos Podi.wav" WAVE
INDEX 01 00:00:00
TRACK 14 AUDIO
TITLE "Slavi I Nine. Edinorodny Sine"
PERFORMER "'Sredets' Chamber Choir, Sofia"
INDEX 00 04:06:57
FILE "14 Slavi I Nine. Edinorodny Sine.wav" WAVE
INDEX 01 00:00:00
TRACK 15 AUDIO
TITLE "Cherubikon"
PERFORMER "'Sredets' Chamber Choir, Sofia"
INDEX 00 03:17:59
FILE "15 Cherubikon.wav" WAVE
INDEX 01 00:00:00
TRACK 16 AUDIO
TITLE "Rozhdestvo Tvoe"
PERFORMER "'Sredets' Chamber Choir, Sofia"
INDEX 00 07:29:21
FILE "16 Rozhdestvo Tvoe.wav" WAVE
INDEX 01 00:00:00
TRACK 17 AUDIO
TITLE "O Tebe Raduetsya"
PERFORMER "'Sredets' Chamber Choir, Sofia"
INDEX 00 02:10:01
FILE "17 O Tebe Raduetsya.wav" WAVE
INDEX 01 00:00:00
TRACK 18 AUDIO
TITLE "Elitzi Vo Hrista Krestitesya"
PERFORMER "'Sredets' Chamber Choir, Sofia"
INDEX 00 02:33:13
FILE "18 Elitzi Vo Hrista Krestitesya.wav" WAVE
INDEX 01 00:00:00
[cybertorrent.ru].t16448.torrent 
Торрент: Зарегистрирован [ 2018-02-21 07:20 ] · 6A7092F69202972FC002F59A0DDEDDD84EC0C6E8

Скачать .torrent

Скачать

19 KB

Статус: проверено
Скачан: 0 раз
Размер: 219 MB
Профиль [ЛС]
Показать сообщения:    

Текущее время: 25-Май 20:07

Часовой пояс: UTC ± 0



Вы не можете начинать темы
Вы не можете отвечать на сообщения
Вы не можете редактировать свои сообщения
Вы не можете удалять свои сообщения
Вы не можете голосовать в опросах
Вы не можете прикреплять файлы к сообщениям
Вы можете скачивать файлы