Статистика раздачи
Размер:  1,62 GB   |    Зарегистрирован:  3 месяца   |    Скачан:  0 раз

Полного источника не было: Никогда

 
   
 
 

Dominion ®

Пол:
Мужской
Стаж:
3 месяца 3 дня
Сообщений:
556

Гость / The Guest- Страна: США, Великобритания
Жанр: триллер, боевик
Год выпуска: 2014
Продолжительность: 01:40:25
Перевод: Профессиональный (дублированный)
Субтитры: русские, английские
Оригинальная аудиодорожка: английский
Режиссер: Адам Вингард / Adam Wingard
В ролях: Дэн Стивенс, Майка Монро, Брендан Мейер, Шейла Келли, Лиленд Орсер, Лэнс Реддик, Табата Шон, Чейз Уильямсон, Джоэль Мур, Стив Браун
Описание: Семья Петерсон недавно потеряла на войне в Афганистане своего сына Калеба и все еще оплакивает его. История начинается с появления на пороге их дома таинственного незнакомца Дэвида, который говорит безутешным родителям, что он армейский товарищ их сына и приехал, выполняя тем самым его последнюю волю.
Родные Калеба рады принять Дэвида. Но вскоре после появления в доме гостя происходит серия странных смертей…
Сэмпл: http://sendfile.su/1321426

Качество видео: BDRip-AVC (Гость-The.Guest.(2014).BDRemux.[1080p]_nnm-club)
Формат видео: MKV
Видео: x264, 1152x480 (2.40:1) 23,976 fps, ~1476 kbps, 0,111 bit/pixel
Аудио 1: 48 kHz, AC3 Dolby Digital, 3/2 (L,C,R,l,r) + LFE ch, ~384 kbps [русский, iTunes Russia]
Аудио 2: 48 kHz, AC3 Dolby Digital, 3/2 (L,C,R,l,r) + LFE ch, ~448 kbps [английский]
Формат субтитров: softsub (SRT)

MediaInfo

General
Unique ID : 170326111248404501750926213726768670832 (0x80239DA4D5C65F80905F42FBD43B2870)
Format : Matroska
Format version : Version 4 / Version 2
File size : 1.62 GiB
Duration : 1h 40mn
Overall bit rate : 2 310 Kbps
Encoded date : UTC 2017-03-26 11:30:02
Writing application : mkvmerge v10.0.0 ('To Drown In You') 64bit
Writing library : libebml v1.3.4 + libmatroska v1.4.5
Cover : Yes
Attachments : cover.jpg
Video #1
ID : 1
Format : AVC
Format/Info : Advanced Video Codec
Format profile : High@L4.1
Format settings, CABAC : Yes
Format settings, ReFrames : 10 frames
Codec ID : V_MPEG4/ISO/AVC
Duration : 1h 40mn
Bit rate : 1 476 Kbps
Width : 1 152 pixels
Height : 480 pixels
Display aspect ratio : 2.40:1
Frame rate mode : Constant
Frame rate : 23.976 (24000/1001) fps
Color space : YUV
Chroma subsampling : 4:2:0
Bit depth : 8 bits
Scan type : Progressive
Bits/(Pixel*Frame) : 0.111
Stream size : 1.04 GiB (64%)
Writing library : x264 core 148 r2638 7599210
Encoding settings : cabac=1 / ref=10 / deblock=1:-3:-2 / analyse=0x3:0x133 / me=umh / subme=10 / psy=1 / psy_rd=1.00:0.00 / mixed_ref=1 / me_range=32 / chroma_me=1 / trellis=2 / 8x8dct=1 / cqm=0 / deadzone=21,11 / fast_pskip=0 / chroma_qp_offset=-2 / threads=6 / lookahead_threads=1 / sliced_threads=0 / nr=0 / decimate=1 / interlaced=0 / bluray_compat=0 / constrained_intra=0 / bframes=11 / b_pyramid=2 / b_adapt=2 / b_bias=0 / direct=1 / weightb=1 / open_gop=0 / weightp=2 / keyint=250 / keyint_min=23 / scenecut=40 / intra_refresh=0 / rc=crf / mbtree=0 / crf=20.5 / qcomp=0.65 / qpmin=0 / qpmax=69 / qpstep=4 / ip_ratio=1.40 / pb_ratio=1.30 / aq=3:0.90
Language : English
Default : Yes
Forced : No
Audio #2
ID : 2
Format : AC-3
Format/Info : Audio Coding 3
Mode extension : CM (complete main)
Format settings, Endianness : Big
Codec ID : A_AC3
Duration : 1h 40mn
Bit rate mode : Constant
Bit rate : 384 Kbps
Channel(s) : 6 channels
Channel positions : Front: L C R, Side: L R, LFE
Sampling rate : 48.0 KHz
Frame rate : 31.250 fps (1536 spf)
Compression mode : Lossy
Stream size : 276 MiB (17%)
Title : iTunes
Language : Russian
Default : Yes
Forced : Yes
Audio #3
ID : 3
Format : AC-3
Format/Info : Audio Coding 3
Mode extension : CM (complete main)
Format settings, Endianness : Big
Codec ID : A_AC3
Duration : 1h 40mn
Bit rate mode : Constant
Bit rate : 448 Kbps
Channel(s) : 6 channels
Channel positions : Front: L C R, Side: L R, LFE
Sampling rate : 48.0 KHz
Frame rate : 31.250 fps (1536 spf)
Compression mode : Lossy
Stream size : 322 MiB (19%)
Language : English
Default : No
Forced : No
Text #4
ID : 4
Format : UTF-8
Codec ID : S_TEXT/UTF8
Codec ID/Info : UTF-8 Plain Text
Duration : 1h 34mn
Bit rate : 78 bps
Count of elements : 1146
Stream size : 54.1 KiB (0%)
Title : Full (Matveev)
Language : Russian
Default : No
Forced : No
Text #5
ID : 5
Format : UTF-8
Codec ID : S_TEXT/UTF8
Codec ID/Info : UTF-8 Plain Text
Duration : 1h 34mn
Bit rate : 47 bps
Count of elements : 1124
Stream size : 32.9 KiB (0%)
Title : Full
Language : English
Default : No
Forced : No
Text #6
ID : 6
Format : UTF-8
Codec ID : S_TEXT/UTF8
Codec ID/Info : UTF-8 Plain Text
Duration : 1h 34mn
Bit rate : 55 bps
Count of elements : 1434
Stream size : 38.5 KiB (0%)
Title : SDH
Language : English
Default : No
Forced : No
Text #7
ID : 7
Format : UTF-8
Codec ID : S_TEXT/UTF8
Codec ID/Info : UTF-8 Plain Text
Duration : 1h 34mn
Bit rate : 72 bps
Count of elements : 1435
Stream size : 50.6 KiB (0%)
Title : Colored
Language : English
Default : No
Forced : No

лог

raw [info]: 1152x480p 1:1 @ 24000/1001 fps (cfr)
x264 [info]: using SAR=1/1
x264 [info]: using cpu capabilities: MMX2 SSE2Fast SSSE3 SSE4.2 AVX XOP FMA4 FMA3 LZCNT BMI1
x264 [info]: profile High, level 4.1
x264 [info]: frame I:1027 Avg QP:17.16 size: 57280
x264 [info]: frame P:28099 Avg QP:18.87 size: 17731
x264 [info]: frame B:115328 Avg QP:21.95 size: 4809
x264 [info]: consecutive B-frames: 1.5% 1.6% 6.3% 10.0% 16.9% 48.0% 6.3% 1.3% 2.8% 1.6% 1.9% 1.6%
x264 [info]: mb I I16..4: 10.5% 74.5% 15.0%
x264 [info]: mb P I16..4: 1.6% 7.1% 1.1% P16..4: 48.1% 20.6% 15.1% 0.2% 0.1% skip: 6.1%
x264 [info]: mb B I16..4: 0.1% 0.3% 0.1% B16..8: 44.7% 7.6% 1.6% direct: 3.1% skip:42.6% L0:45.5% L1:49.2% BI: 5.4%
x264 [info]: 8x8 transform intra:71.9% inter:74.1%
x264 [info]: coded y,uvDC,uvAC intra: 79.5% 88.4% 69.3% inter: 14.4% 16.9% 2.9%
x264 [info]: i16 v,h,dc,p: 47% 14% 6% 33%
x264 [info]: i8 v,h,dc,ddl,ddr,vr,hd,vl,hu: 9% 7% 3% 11% 16% 15% 14% 12% 12%
x264 [info]: i4 v,h,dc,ddl,ddr,vr,hd,vl,hu: 9% 7% 2% 12% 17% 15% 14% 12% 12%
x264 [info]: i8c dc,h,v,p: 42% 20% 18% 20%
x264 [info]: Weighted P-Frames: Y:15.4% UV:12.0%
x264 [info]: ref P L0: 46.9% 8.8% 18.4% 7.1% 5.4% 4.0% 3.4% 2.0% 1.8% 1.7% 0.4% 0.1%
x264 [info]: ref B L0: 72.6% 12.2% 6.0% 2.9% 2.1% 1.7% 1.5% 0.6% 0.3%
x264 [info]: ref B L1: 91.3% 8.7%
x264 [info]: kb/s:1476.09
x264 [total]: encoded 144454 frames, 6.93 fps, 1476.09 kb/s

Скриншоты


[cybertorrent.ru].t16783.torrent 
Торрент: Зарегистрирован [ 2018-02-21 10:05 ] · 9FA2ED657479B9705C52DE952A5DC8733CEF871F

Скачать .torrent

Скачать

17 KB

Статус: проверено
Скачан: 0 раз
Размер: 1,62 GB
Профиль [ЛС]
Показать сообщения:    

Текущее время: 21-Май 20:28

Часовой пояс: UTC ± 0



Вы не можете начинать темы
Вы не можете отвечать на сообщения
Вы не можете редактировать свои сообщения
Вы не можете удалять свои сообщения
Вы не можете голосовать в опросах
Вы не можете прикреплять файлы к сообщениям
Вы можете скачивать файлы