Статистика раздачи
Размер:  729 MB   |    Зарегистрирован:  3 месяца 9 дней   |    Скачан:  0 раз

Полного источника не было: Никогда

Личеров:  1  [  0 KB/s  ]  
 
   
 
 

karapuz ®

Пол:
Не указан
Стаж:
3 месяца 10 дней
Сообщений:
186

Скуби-Ду! Нападение Меха-Пса / Scooby-Doo! Mecha Mutt Menace
Страна: США
Жанр: Ужасы, Детектив, Комедия
Продолжительность: 00:21:44
Год выпуска: 2013
Перевод: Субтитры
Русские субтитры: есть
Главы: есть, 5 шт-Режиссёр: Виктор Кук / Victor Cook
Описание: Команде придется сразиться с Меха-Псом, революционным луноходом на радиоуправлении.-Качество: DVDRemux
Формат: MKV
Видео: MPEG-2 | 720x576 | 25.000 fps | 4 402 Kbps
Аудио: Английский - AC-3 | 48.0 KHz | 2 ch | 192 Kbps
Субтитры 1: Русские - с официального русского издания от "СР-Дистрибуция"
Субтитры 2: Английские
Семпл

Если видео воспроизводится с неправильным соотношением сторон 4:3

Внимание: если у вас видео воспроизводится с неправильным соотношением сторон 4:3 (как на скриншотах), вам нужно принудительно выставить соотношение сторон 16:9 в вашем плеере.
На примере MPC:
Видеокадр => Установить пропорции => 16:9
или Видеокадр => Сохранять пропорции

Подробные технические данные

Complete name : E:\СКУБИ-ДУ\Короткометражки\2013 Scooby-Doo! Mecha Mutt Menace DVDRemux [ENG] {RUS} {ENG} (CHP).mkv
Format : Matroska
Format version : Version 4 / Version 2
File size : 729 MiB
Duration : 21mn 44s
Overall bit rate mode : Variable
Overall bit rate : 4 687 Kbps
Encoded date : UTC 2014-02-02 08:25:28
Writing application : mkvmerge v6.5.0 ('Isn't she lovely') built on Oct 20 2013 12:50:05
Writing library : libebml v1.3.0 + libmatroska v1.4.1
Video
ID : 1
Format : MPEG Video
Format version : Version 2
Format profile : Main@Main
Format settings, BVOP : No
Format settings, Matrix : Custom
Codec ID : V_MPEG2
Codec ID/Info : MPEG 1 or 2 Video
Duration : 21mn 44s
Bit rate mode : Variable
Bit rate : 4 402 Kbps
Maximum bit rate : 7 500 Kbps
Width : 720 pixels
Height : 576 pixels
Display aspect ratio : 16:9
Frame rate mode : Constant
Frame rate : 25.000 fps
Standard : PAL
Color space : YUV
Chroma subsampling : 4:2:0
Bit depth : 8 bits
Scan type : Interlaced
Scan order : Top Field First
Compression mode : Lossy
Bits/(Pixel*Frame) : 0.425
Time code of first frame : 00:59:58:00
Time code source : Group of pictures header
Stream size : 685 MiB (94%)
Language : English
Default : No
Forced : No
Audio
ID : 2
Format : AC-3
Format/Info : Audio Coding 3
Format profile : Dolby Digital
Mode extension : CM (complete main)
Format settings, Endianness : Big
Codec ID : A_AC3
Duration : 21mn 44s
Bit rate mode : Constant
Bit rate : 192 Kbps
Channel(s) : 2 channels
Channel positions : Front: L R
Sampling rate : 48.0 KHz
Bit depth : 16 bits
Compression mode : Lossy
Stream size : 29.9 MiB (4%)
Language : English
Default : No
Forced : No
Text #1
ID : 3
Format : VobSub
Muxing mode : zlib
Codec ID : S_VOBSUB
Codec ID/Info : The same subtitle format used on DVDs
Language : Russian
Default : Yes
Forced : No
Text #2
ID : 4
Format : VobSub
Muxing mode : zlib
Codec ID : S_VOBSUB
Codec ID/Info : The same subtitle format used on DVDs
Language : English
Default : No
Forced : No
Menu
00:00:00.000 : en:Chapter 01
00:00:21.720 : en:Chapter 02
00:07:25.160 : en:Chapter 03
00:13:48.680 : en:Chapter 04
00:21:08.800 : en:Chapter 05
[cybertorrent.ru].t1942.torrent 
Торрент: Зарегистрирован [ 2018-02-16 08:44 ] · F8738827E707704727BD7CE06CE0E79C03D84E10

Скачать .torrent

Скачать

15 KB

Статус: проверено
Скачан: 0 раз
Размер: 729 MB
Профиль [ЛС]
Показать сообщения:    

Текущее время: 26-Май 08:03

Часовой пояс: UTC ± 0



Вы не можете начинать темы
Вы не можете отвечать на сообщения
Вы не можете редактировать свои сообщения
Вы не можете удалять свои сообщения
Вы не можете голосовать в опросах
Вы не можете прикреплять файлы к сообщениям
Вы можете скачивать файлы