Статистика раздачи
Размер:  5,28 GB   |    Зарегистрирован:  2 месяца 9 дней   |    Скачан:  0 раз

Полного источника не было: Никогда

 
   
 
 

firebird ®

Пол:
Не указан
Стаж:
2 месяца 10 дней
Сообщений:
270

Джош Керби... Воин во времени: Планета рыцарей - динозавров / Josh Kirby... Time Warrior: Planet of the Dino - Knights (Chapter 1)
Страна: США, Румыния
Жанр: фэнтези
Год выпуска: 1995
Продолжительность: 1:32:55
Режиссер: Эрнест Д. Фарино / Ernest D. Farino
Перевод: Одноголосый (Неизвестный)
Субтитры: нет-В ролях: Corbin Allred, Jennifer Burns, Derek Webster, Barrie Ingham, Matt Winston, Nick DeGruccio, Cindy L. Sorensen, Michael Hagiwara, Lomax Study, Mihai Niculescu-Описание: Главный герой, мальчик Джош, не вернется сегодня после школы домой. Потому что он отправляется в будущее вместе с путешественниками во времени из XXV века. Он окажется в чудесном мире, который он должен спасти от злого доктора Зоутропа...-Сэмпл: http://multi-up.com/1015122-Ссылка на альтернативные раздачи-Над релизом работали:
* За дорожку огромное спасибо: legendofdrizzt
* Сведение и работа со звуком: SerGoLeOne
Резил: Skyefilmtv
Качество видео: DVDRip
Формат видео: AVI
Видео: 720x480 (1.50:1), 29.970 fps, XviD build 50 ~1134 kbps avg, 0.11 bit/pixel
Аудио 1: 48 kHz, AC3 Dolby Digital, 2/0 (L,R) ch, ~192 kbps [RUS]
Аудио 2: 48 kHz, MPEG Layer 3, 2 ch, ~128.00 kbps avg [ENG]-

Скриншоты

MediaInfo

Общее
Полное имя : JoshKirby.1.DinoKnights.DVDrip.Xvid-Rus.[SkyeFilmTV].avi
Формат : AVI
Формат/Информация : Audio Video Interleave
Размер файла : 908 Мбайт
Продолжительность : 1 ч. 26 м.
Общий поток : 1473 Кбит/сек
Программа кодирования : VirtualDubMod 1.5.4.1 (build 2178/release)
Библиотека кодирования : VirtualDubMod build 2178/release
Видео
Идентификатор : 0
Формат : MPEG-4 Visual
Профиль формата : Advanced Simple@L5
Параметр BVOP формата : 2
Параметр QPel формата : Нет
Параметр GMC формата : Без точки перехода
Параметр матрицы формата : Default (H.263)
Идентификатор кодека : XVID
Идентификатор кодека/Подсказка : XviD
Продолжительность : 1 ч. 26 м.
Битрейт : 1135 Кбит/сек
Ширина : 720 пикселей
Высота : 480 пикселей
Соотношение сторон : 3:2
Частота кадров : 29,970 кадров/сек
Стандарт вещания : NTSC
Цветовое пространство : YUV
Субдискретизация насыщенности : 4:2:0
Битовая глубина : 8 бит
Тип развёртки : Прогрессивная
Метод сжатия : С потерями
Бит/(Пиксели*Кадры) : 0.110
Размер потока : 700 Мбайт (77%)
Библиотека кодирования : XviD 1.2.1 (UTC 2008-12-04)
Аудио #1
Идентификатор : 1
Формат : AC-3
Формат/Информация : Audio Coding 3
Расширение режима : CM (complete main)
Параметр Endianness формата : Big
Идентификатор кодека : 2000
Продолжительность : 1 ч. 26 м.
Вид битрейта : Постоянный
Битрейт : 192 Кбит/сек
Каналы : 2 канала
Расположение каналов : Front: L R
Частота : 48,0 КГц
Битовая глубина : 16 бит
Метод сжатия : С потерями
Размер потока : 118 Мбайт (13%)
Выравнивание : Разделение по промежуткам
Продолжительность промежутка : 33 мс. (1,00 видеокадр)
Время предзагрузки промежутка : 500 мс.
Аудио #2
Идентификатор : 2
Формат : MPEG Audio
Версия формата : Version 1
Профиль формата : Layer 3
Идентификатор кодека : 55
Идентификатор кодека/Подсказка : MP3
Продолжительность : 1 ч. 26 м.
Вид битрейта : Постоянный
Битрейт : 128 Кбит/сек
Каналы : 2 канала
Частота : 48,0 КГц
Метод сжатия : С потерями
Размер потока : 78,9 Мбайт (9%)
Выравнивание : Разделение по промежуткам
Продолжительность промежутка : 33 мс. (1,00 видеокадр)
Время предзагрузки промежутка : 500 мс.
Джош Керби... Воин во времени: Люди - питомцы / Josh Kirby... Time Warrior: The Human Pets (Chapter 2)
Страна: США, Румыния
Жанр: фэнтези
Год выпуска: 1995
Продолжительность: 1:32:55
Режиссер: Эрнест Д. Фарино / Ernest D. Farino
Перевод: Одноголосый (Неизвестный)
Субтитры: нет-В ролях: Corbin Allred, Jennifer Burns, Derek Webster, Barrie Ingham, Matt Winston, Nick DeGruccio, Cindy L. Sorensen, Michael Hagiwara, Lomax Study, Mihai Niculescu-Описание: Главный герой, мальчик Джош, не вернется сегодня после школы домой. Потому что он отправляется в будущее вместе с путешественниками во времени из XXV века. Он окажется в чудесном мире, который он должен спасти от злого доктора Зоутропа...-Сэмпл: http://multi-up.com/1015123-Над релизом работали:
* За дорожку огромное спасибо: legendofdrizzt
* Сведение и работа со звуком: SerGoLeOne
Резил: Skyefilmtv
Качество видео: DVDRip
Формат видео: AVI
Видео: 720x480 (1.50:1), 29.970 fps, XviD build 50 ~1128 kbps avg, 0.11 bit/pixel
Аудио 1: 48 kHz, AC3 Dolby Digital, 2/0 (L,R) ch, ~192 kbps [RUS]
Аудио 2: 48 kHz, MPEG Layer 3, 2 ch, ~128.00 kbps avg [ENG]-

Скриншоты

MediaInfo

Общее
Полное имя : JoshKirby.2.HumanPets.DVDrip.Xvid-Rus.[SkyeFilmTV].avi
Формат : AVI
Формат/Информация : Audio Video Interleave
Размер файла : 909 Мбайт
Продолжительность : 1 ч. 26 м.
Общий поток : 1467 Кбит/сек
Программа кодирования : VirtualDubMod 1.5.4.1 (build 2178/release)
Библиотека кодирования : VirtualDubMod build 2178/release
Видео
Идентификатор : 0
Формат : MPEG-4 Visual
Профиль формата : Advanced Simple@L5
Параметр BVOP формата : 2
Параметр QPel формата : Нет
Параметр GMC формата : Без точки перехода
Параметр матрицы формата : Default (H.263)
Идентификатор кодека : XVID
Идентификатор кодека/Подсказка : XviD
Продолжительность : 1 ч. 26 м.
Битрейт : 1129 Кбит/сек
Ширина : 720 пикселей
Высота : 480 пикселей
Соотношение сторон : 3:2
Частота кадров : 29,970 кадров/сек
Стандарт вещания : NTSC
Цветовое пространство : YUV
Субдискретизация насыщенности : 4:2:0
Битовая глубина : 8 бит
Тип развёртки : Прогрессивная
Метод сжатия : С потерями
Бит/(Пиксели*Кадры) : 0.109
Размер потока : 700 Мбайт (77%)
Библиотека кодирования : XviD 1.2.1 (UTC 2008-12-04)
Аудио #1
Идентификатор : 1
Формат : AC-3
Формат/Информация : Audio Coding 3
Расширение режима : CM (complete main)
Параметр Endianness формата : Big
Идентификатор кодека : 2000
Продолжительность : 1 ч. 26 м.
Вид битрейта : Постоянный
Битрейт : 192 Кбит/сек
Каналы : 2 канала
Расположение каналов : Front: L R
Частота : 48,0 КГц
Битовая глубина : 16 бит
Метод сжатия : С потерями
Размер потока : 119 Мбайт (13%)
Выравнивание : Разделение по промежуткам
Продолжительность промежутка : 33 мс. (1,00 видеокадр)
Время предзагрузки промежутка : 500 мс.
Аудио #2
Идентификатор : 2
Формат : MPEG Audio
Версия формата : Version 1
Профиль формата : Layer 3
Идентификатор кодека : 55
Идентификатор кодека/Подсказка : MP3
Продолжительность : 1 ч. 26 м.
Вид битрейта : Постоянный
Битрейт : 128 Кбит/сек
Каналы : 2 канала
Частота : 48,0 КГц
Метод сжатия : С потерями
Размер потока : 79,3 Мбайт (9%)
Выравнивание : Разделение по промежуткам
Продолжительность промежутка : 33 мс. (1,00 видеокадр)
Время предзагрузки промежутка : 500 мс.
Джош Керби... Воин во времени: В мире игрушек / Josh Kirby... Time Warrior: Trapped on Toyworld (Chapter 3)
Страна: США, Румыния
Жанр: фэнтези
Год выпуска: 1995
Продолжительность: 1:32:55
Режиссер: Эрнест Д. Фарино / Ernest D. Farino
Перевод: Одноголосый (Неизвестный)
Субтитры: нет-В ролях: Corbin Allred, Jennifer Burns, Derek Webster, Barrie Ingham, Matt Winston, Nick DeGruccio, Cindy L. Sorensen, Michael Hagiwara, Lomax Study, Mihai Niculescu-Описание: Главный герой, мальчик Джош, не вернется сегодня после школы домой. Потому что он отправляется в будущее вместе с путешественниками во времени из XXV века. Он окажется в чудесном мире, который он должен спасти от злого доктора Зоутропа...-Сэмпл: http://multi-up.com/1015124-Над релизом работали:
* За дорожку огромное спасибо: tfsn23
* Сведение и работа со звуком: tfsn23, Deman
Резил: Skyefilmtv
Качество видео: DVDRip
Формат видео: AVI
Видео: 720x480 (1.50:1), 29.970 fps, XviD build 50 ~1161 kbps avg, 0.11 bit/pixel
Аудио 1: 48 kHz, MPEG Layer 3, 2 ch, ~128.00 kbps avg [RUS]
Аудио 2: 48 kHz, MPEG Layer 3, 2 ch, ~128.00 kbps avg [ENG]-

Скриншоты

MediaInfo

Общее
Полное имя : JoshKirby.3.TrappedOnToyWorld.DVDrip.Xvid-Rus.[SkyeFilmTV].avi
Формат : AVI
Формат/Информация : Audio Video Interleave
Размер файла : 891 Мбайт
Продолжительность : 1 ч. 26 м.
Общий поток : 1436 Кбит/сек
Программа кодирования : VirtualDubMod 1.5.4.1 (build 2178/release)
Библиотека кодирования : VirtualDubMod build 2178/release
Видео
Идентификатор : 0
Формат : MPEG-4 Visual
Профиль формата : Advanced Simple@L5
Параметр BVOP формата : 2
Параметр QPel формата : Нет
Параметр GMC формата : Без точки перехода
Параметр матрицы формата : Default (H.263)
Идентификатор кодека : XVID
Идентификатор кодека/Подсказка : XviD
Продолжительность : 1 ч. 26 м.
Битрейт : 1163 Кбит/сек
Ширина : 720 пикселей
Высота : 480 пикселей
Соотношение сторон : 3:2
Частота кадров : 29,970 кадров/сек
Стандарт вещания : NTSC
Цветовое пространство : YUV
Субдискретизация насыщенности : 4:2:0
Битовая глубина : 8 бит
Тип развёртки : Прогрессивная
Метод сжатия : С потерями
Бит/(Пиксели*Кадры) : 0.112
Размер потока : 722 Мбайт (81%)
Библиотека кодирования : XviD 1.2.1 (UTC 2008-12-04)
Аудио #1
Идентификатор : 1
Формат : MPEG Audio
Версия формата : Version 1
Профиль формата : Layer 3
Режим : Joint stereo
Расширение режима : MS Stereo
Идентификатор кодека : 55
Идентификатор кодека/Подсказка : MP3
Продолжительность : 1 ч. 26 м.
Вид битрейта : Постоянный
Битрейт : 128 Кбит/сек
Каналы : 2 канала
Частота : 48,0 КГц
Метод сжатия : С потерями
Размер потока : 79,4 Мбайт (9%)
Выравнивание : Разделение по промежуткам
Продолжительность промежутка : 33 мс. (1,00 видеокадр)
Время предзагрузки промежутка : 500 мс.
Аудио #2
Идентификатор : 2
Формат : MPEG Audio
Версия формата : Version 1
Профиль формата : Layer 3
Идентификатор кодека : 55
Идентификатор кодека/Подсказка : MP3
Продолжительность : 1 ч. 26 м.
Вид битрейта : Постоянный
Битрейт : 128 Кбит/сек
Каналы : 2 канала
Частота : 48,0 КГц
Метод сжатия : С потерями
Размер потока : 79,4 Мбайт (9%)
Выравнивание : Разделение по промежуткам
Продолжительность промежутка : 33 мс. (1,00 видеокадр)
Время предзагрузки промежутка : 500 мс.
Джош Керби... Воин во времени: Яйца, которым более 70 миллионов лет / Josh Kirby... Time Warrior: Eggs from 70 million B.C. (Chapter 4)
Страна: США, Румыния
Жанр: фэнтези
Год выпуска: 1995
Продолжительность: 1:32:55
Режиссер: Марк Мэйнос
Перевод: Одноголосый (Л. Володарский)
Субтитры: нет-В ролях: Corbin Allred, Jennifer Burns, Derek Webster, Barrie Ingham, Matt Winston, Nick DeGruccio, Cindy L. Sorensen, Michael Hagiwara, Lomax Study, Mihai Niculescu-Описание: Джош Керби продолжает свои приключения в разных временах в борьбе за нулифайер. Поступила весть, что злобный Зоэтроп, возможно, погиб. А Керби и его друзья находят странные яйца, занесенные временем, из которых вылупляются забавные и очень ласковые гусенички. Беда в том, что они сразу же стали жрать все подряд в машине времени и испортили ее, а результатом были настоящие космические воины, плен и ... Впрочем о дальнейших событиях вы узнаете сами.-Сэмпл: http://multi-up.com/1015125-Над релизом работали:
* Покупка кассеты, оцифровка: Deman
* Сведение и работа со звуком: ALEKS_KV
Резил: Skyefilmtv
Качество видео: DVDRip
Формат видео: AVI
Видео: 720x480 (1.50:1), 29.970 fps, XviD build 50 ~1092 kbps avg, 0.11 bit/pixel
Аудио 1: 48 kHz, AC3 Dolby Digital, 2/0 (L,R) ch, ~192 kbps [RUS]
Аудио 2: 48 kHz, MPEG Layer 3, 2 ch, ~128.00 kbps avg [ENG]-

Скриншоты

MediaInfo

Общее
Полное имя : JoshKirby.4.EggsFrom70MillBC.DVDrip.Xvid-Rus.[SkyeFilmTV].avi
Формат : AVI
Формат/Информация : Audio Video Interleave
Размер файла : 916 Мбайт
Продолжительность : 1 ч. 29 м.
Общий поток : 1431 Кбит/сек
Программа кодирования : VirtualDubMod 1.5.4.1 (build 2178/release)
Библиотека кодирования : VirtualDubMod build 2178/release
Видео
Идентификатор : 0
Формат : MPEG-4 Visual
Профиль формата : Advanced Simple@L5
Параметр BVOP формата : 2
Параметр QPel формата : Нет
Параметр GMC формата : Без точки перехода
Параметр матрицы формата : Default (H.263)
Идентификатор кодека : XVID
Идентификатор кодека/Подсказка : XviD
Продолжительность : 1 ч. 29 м.
Битрейт : 1093 Кбит/сек
Ширина : 720 пикселей
Высота : 480 пикселей
Соотношение сторон : 3:2
Частота кадров : 29,970 кадров/сек
Стандарт вещания : NTSC
Цветовое пространство : YUV
Субдискретизация насыщенности : 4:2:0
Битовая глубина : 8 бит
Тип развёртки : Прогрессивная
Метод сжатия : С потерями
Бит/(Пиксели*Кадры) : 0.106
Размер потока : 700 Мбайт (76%)
Библиотека кодирования : XviD 1.2.1 (UTC 2008-12-04)
Аудио #1
Идентификатор : 1
Формат : AC-3
Формат/Информация : Audio Coding 3
Расширение режима : CM (complete main)
Параметр Endianness формата : Big
Идентификатор кодека : 2000
Продолжительность : 1 ч. 29 м.
Вид битрейта : Постоянный
Битрейт : 192 Кбит/сек
Каналы : 2 канала
Расположение каналов : Front: L R
Частота : 48,0 КГц
Битовая глубина : 16 бит
Метод сжатия : С потерями
Размер потока : 123 Мбайт (13%)
Выравнивание : Разделение по промежуткам
Продолжительность промежутка : 33 мс. (1,00 видеокадр)
Время предзагрузки промежутка : 500 мс.
Аудио #2
Идентификатор : 2
Формат : MPEG Audio
Версия формата : Version 1
Профиль формата : Layer 3
Идентификатор кодека : 55
Идентификатор кодека/Подсказка : MP3
Продолжительность : 1 ч. 29 м.
Вид битрейта : Постоянный
Битрейт : 128 Кбит/сек
Каналы : 2 канала
Частота : 48,0 КГц
Метод сжатия : С потерями
Размер потока : 81,9 Мбайт (9%)
Выравнивание : Разделение по промежуткам
Продолжительность промежутка : 33 мс. (1,00 видеокадр)
Время предзагрузки промежутка : 500 мс.
Библиотека кодирования : LAME3.98.2UUU#нџљЊ
Джош Керби... Воин во времени: Волшебная пещера / Josh Kirby... Time Warrior: Journey to the Magic Cavern (Chapter 5)
Страна: США, Румыния
Жанр: фэнтези
Год выпуска: 1995
Продолжительность: 1:32:55
Режиссер: Эрнест Д. Фарино / Ernest D. Farino
Перевод: Одноголосый (С. Визгунов)
Субтитры: нет-В ролях: Corbin Allred, Jennifer Burns, Derek Webster, Barrie Ingham, Matt Winston, Nick DeGruccio, Cindy L. Sorensen, Michael Hagiwara, Lomax Study, Mihai Niculescu-Описание: Главный герой Джош Кирби и его друзья попадают в удивительную страну, населенную Людьми-Грибами. Этим дружелюбным созданиям угрожает ужасный монстр. Джош решает помочь своим новым друзьям, но ему придется сразиться со злодеем — доктором Зоетропом…-Сэмпл: http://multi-up.com/1015126-Над релизом работали:
* Оцифровка и предоставление материала: Батькович444444
* Сведение и работа со звуком: ALEKS_KV
Резил: Skyefilmtv
Качество видео: DVDRip
Формат видео: AVI
Видео: 720x480 (1.50:1), 29.970 fps, XviD build 50 ~1099 kbps avg, 0.11 bit/pixel
Аудио 1: 48 kHz, AC3 Dolby Digital, 2/0 (L,R) ch, ~192 kbps [RUS]
Аудио 2: 48 kHz, MPEG Layer 3, 2 ch, ~128.00 kbps avg [ENG]-

Скриншоты

MediaInfo

Общее
Полное имя : JoshKirby.5.MagicCavern.DVDrip.Xvid-Rus.[SkyeFilmTV].avi
Формат : AVI
Формат/Информация : Audio Video Interleave
Размер файла : 914 Мбайт
Продолжительность : 1 ч. 28 м.
Общий поток : 1438 Кбит/сек
Программа кодирования : VirtualDubMod 1.5.4.1 (build 2178/release)
Библиотека кодирования : VirtualDubMod build 2178/release
Видео
Идентификатор : 0
Формат : MPEG-4 Visual
Профиль формата : Advanced Simple@L5
Параметр BVOP формата : 2
Параметр QPel формата : Нет
Параметр GMC формата : Без точки перехода
Параметр матрицы формата : Default (H.263)
Идентификатор кодека : XVID
Идентификатор кодека/Подсказка : XviD
Продолжительность : 1 ч. 28 м.
Битрейт : 1101 Кбит/сек
Ширина : 720 пикселей
Высота : 480 пикселей
Соотношение сторон : 3:2
Частота кадров : 29,970 кадров/сек
Стандарт вещания : NTSC
Цветовое пространство : YUV
Субдискретизация насыщенности : 4:2:0
Битовая глубина : 8 бит
Тип развёртки : Прогрессивная
Метод сжатия : С потерями
Бит/(Пиксели*Кадры) : 0.106
Размер потока : 700 Мбайт (77%)
Библиотека кодирования : XviD 1.2.1 (UTC 2008-12-04)
Аудио #1
Идентификатор : 1
Формат : AC-3
Формат/Информация : Audio Coding 3
Расширение режима : CM (complete main)
Параметр Endianness формата : Big
Идентификатор кодека : 2000
Продолжительность : 1 ч. 28 м.
Вид битрейта : Постоянный
Битрейт : 192 Кбит/сек
Каналы : 2 канала
Расположение каналов : Front: L R
Частота : 48,0 КГц
Битовая глубина : 16 бит
Метод сжатия : С потерями
Размер потока : 122 Мбайт (13%)
Выравнивание : Разделение по промежуткам
Продолжительность промежутка : 33 мс. (1,00 видеокадр)
Время предзагрузки промежутка : 500 мс.
Аудио #2
Идентификатор : 2
Формат : MPEG Audio
Версия формата : Version 1
Профиль формата : Layer 3
Идентификатор кодека : 55
Идентификатор кодека/Подсказка : MP3
Продолжительность : 1 ч. 28 м.
Вид битрейта : Постоянный
Битрейт : 128 Кбит/сек
Каналы : 2 канала
Частота : 48,0 КГц
Метод сжатия : С потерями
Размер потока : 81,4 Мбайт (9%)
Выравнивание : Разделение по промежуткам
Продолжительность промежутка : 33 мс. (1,00 видеокадр)
Время предзагрузки промежутка : 500 мс.
Джош Керби... Воин во времени: Последнее сражение / Josh Kirby... Time Warrior: Last Battle for the Universe (Chapter 6)
Страна: США, Румыния
Жанр: фэнтези
Год выпуска: 1996
Продолжительность: 1:32:55
Режиссер: Эрнест Д. Фарино / Ernest D. Farino
Перевод: Одноголосый (Неизвестный)
Субтитры: нет-В ролях: Corbin Allred, Jennifer Burns, Derek Webster, Barrie Ingham, Matt Winston, Nick DeGruccio, Cindy L. Sorensen, Michael Hagiwara, Lomax Study, Mihai Niculescu-Описание: После долгих приключений во времени и пространстве главный герой, Джош, наконец решает вернуться в свое время. Но кажется, что все злодеи Вселенной ополчились против него. Сможет ли он вернуться домой, или будет всю жизнь скитаться по Вселенной в прошломи в будущем?..-Сэмпл: http://multi-up.com/1015127-Над релизом работали:
* За дорожку огромное спасибо: tfsn23
* Сведение и работа со звуком: tfsn23, Deman
Резил: Skyefilmtv
Качество видео: DVDRip
Формат видео: AVI
Видео: 720x480 (1.50:1), 29.970 fps, XviD build 50 ~1132 kbps avg, 0.11 bit/pixel
Аудио 1: 48 kHz, MPEG Layer 3, 2 ch, ~128.00 kbps avg [RUS]
Аудио 2: 48 kHz, MPEG Layer 3, 2 ch, ~128.00 kbps avg [ENG]-

Скриншоты

MediaInfo

Общее
Полное имя : JoshKirby.6.LastBattle4Universe.DVDrip.Xvid-Rus.[SkyeFilmTV].avi
Формат : AVI
Формат/Информация : Audio Video Interleave
Размер файла : 869 Мбайт
Продолжительность : 1 ч. 26 м.
Общий поток : 1407 Кбит/сек
Программа кодирования : VirtualDubMod 1.5.4.1 (build 2178/release)
Библиотека кодирования : VirtualDubMod build 2178/release
Видео
Идентификатор : 0
Формат : MPEG-4 Visual
Профиль формата : Advanced Simple@L5
Параметр BVOP формата : 2
Параметр QPel формата : Нет
Параметр GMC формата : Без точки перехода
Параметр матрицы формата : Default (H.263)
Идентификатор кодека : XVID
Идентификатор кодека/Подсказка : XviD
Продолжительность : 1 ч. 26 м.
Битрейт : 1133 Кбит/сек
Ширина : 720 пикселей
Высота : 480 пикселей
Соотношение сторон : 3:2
Частота кадров : 29,970 кадров/сек
Стандарт вещания : NTSC
Цветовое пространство : YUV
Субдискретизация насыщенности : 4:2:0
Битовая глубина : 8 бит
Тип развёртки : Прогрессивная
Метод сжатия : С потерями
Бит/(Пиксели*Кадры) : 0.109
Размер потока : 700 Мбайт (81%)
Библиотека кодирования : XviD 1.2.1 (UTC 2008-12-04)
Аудио #1
Идентификатор : 1
Формат : MPEG Audio
Версия формата : Version 1
Профиль формата : Layer 3
Режим : Joint stereo
Расширение режима : MS Stereo
Идентификатор кодека : 55
Идентификатор кодека/Подсказка : MP3
Продолжительность : 1 ч. 26 м.
Вид битрейта : Постоянный
Битрейт : 128 Кбит/сек
Каналы : 2 канала
Частота : 48,0 КГц
Метод сжатия : С потерями
Размер потока : 79,1 Мбайт (9%)
Выравнивание : Разделение по промежуткам
Продолжительность промежутка : 33 мс. (1,00 видеокадр)
Время предзагрузки промежутка : 500 мс.
Аудио #2
Идентификатор : 2
Формат : MPEG Audio
Версия формата : Version 1
Профиль формата : Layer 3
Идентификатор кодека : 55
Идентификатор кодека/Подсказка : MP3
Продолжительность : 1 ч. 26 м.
Вид битрейта : Постоянный
Битрейт : 128 Кбит/сек
Каналы : 2 канала
Частота : 48,0 КГц
Метод сжатия : С потерями
Размер потока : 79,0 Мбайт (9%)
Выравнивание : Разделение по промежуткам
Продолжительность промежутка : 33 мс. (1,00 видеокадр)
Время предзагрузки промежутка : 500 мс.
[cybertorrent.ru].t2098.torrent 
Торрент: Зарегистрирован [ 2018-02-16 11:35 ] · F6B44B5D74D7A254B051B99962D508B15DCBE5EF

Скачать .torrent

Скачать

14 KB

Статус: проверено
Скачан: 0 раз
Размер: 5,28 GB
Профиль [ЛС]
Показать сообщения:    

Текущее время: 25-Апр 21:50

Часовой пояс: UTC ± 0



Вы не можете начинать темы
Вы не можете отвечать на сообщения
Вы не можете редактировать свои сообщения
Вы не можете удалять свои сообщения
Вы не можете голосовать в опросах
Вы не можете прикреплять файлы к сообщениям
Вы можете скачивать файлы