Статистика раздачи
Размер:  2,18 GB   |    Зарегистрирован:  3 дня   |    Скачан:  0 раз

Полного источника не было: Никогда

 
   
 
 

lopster ®

Пол:
Не указан
Стаж:
4 дня
Сообщений:
509

Викинг
«Тебе нужно увидеть, чтобы поверить»
- Год выхода: 2016
Выпущено: Россия / Дирекция Кино
Жанр: история, драма
Продолжительность: 02:28:47-Режиссер:
Андрей Кравчук-В ролях:
Данила Козловский (Владимир), Светлана Ходченкова (Ирина), Максим Суханов (Свенельд), Игорь Петренко (Варяжко), Андрей Смоляков (Роговолд), Владимир Епифанцев (Федор), Александра Бортич (Рогнеда), Кирилл Плетнёв (Олег), Александр Устюгов (Ярополк), Ростислав Бершауэр (Блуд)-О фильме:
Раннее Средневековье. Время тяжелых мечей и темных законов крови. Правящий род в раздоре. Вина за случайную смерть брата легла на Великого Князя. По закону мстить ему должен младший брат — бастард. За отказ убивать он заплатит всем, что у него было, потому что «для мира нужно больше мечей, чем для войны».-Релиз групп | | КиноПоиск | Сэмпл |-Качество: WEB-DLRip [VIKING_UNRATED_WEB_DL_1080p-BLUEBIRD]
Формат: AVI
Видео: 720x304 (2.37:1), 25 fps, XviD build 67 ~1704 kbps avg, 0.31 bit/pixel
Аудио: 48 kHz, AC3 Dolby Digital, 3/2 (L,C,R,l,r) + LFE ch, ~384 kbps avg-

Скриншоты

-

MediaInfo

Код:Общее
Полное имя : D:\Viking_2016_WEB-DLRip_[UNRATED_2.18]_by_Dalemake.avi
Формат : AVI
Формат/Информация : Audio Video Interleave
Профиль формата : OpenDML
Размер файла : 2,18 Гбайт
Продолжительность : 2 ч. 28 м.
Общий поток : 2096 Кбит/сек
Программа кодирования : VirtualDubMod 1.5.10.3 | www.virtualdub-fr.org || (build 2550/release)
Библиотека кодирования : VirtualDubMod build 2550/release
Видео
Идентификатор : 0
Формат : MPEG-4 Visual
Профиль формата : Advanced Simple@L5
Параметр BVOP формата : 1
Параметр QPel формата : Нет
Параметр GMC формата : Без точки перехода
Параметр матрицы формата : Выборочная
Идентификатор кодека : XVID
Идентификатор кодека/Подсказка : XviD
Продолжительность : 2 ч. 28 м.
Битрейт : 1700 Кбит/сек
Ширина : 720 пикселей
Высота : 304 пикселя
Соотношение сторон : 2,35:1
Частота кадров : 25,000 кадров/сек
Цветовое пространство : YUV
Субдискретизация насыщенности : 4:2:0
Битовая глубина : 8 бит
Тип развёртки : Прогрессивная
Метод сжатия : С потерями
Бит/(Пиксели*Кадры) : 0.311
Размер потока : 1,77 Гбайт (81%)
Библиотека кодирования : XviD 67
Аудио
Идентификатор : 1
Формат : AC-3
Формат/Информация : Audio Coding 3
Расширение режима : CM (complete main)
Параметр Endianness формата : Big
Идентификатор кодека : 2000
Продолжительность : 2 ч. 28 м.
Вид битрейта : Постоянный
Битрейт : 384 Кбит/сек
Каналы : 6 каналов
Расположение каналов : Front: L C R, Side: L R, LFE
Частота : 48,0 КГц
Битовая глубина : 16 бит
Метод сжатия : С потерями
Размер потока : 409 Мбайт (18%)
Выравнивание : Разделение по промежуткам
Продолжительность промежутка : 40 мс. (1,00 видеокадр)
Время предзагрузки промежутка : 500 мс.
Версия фильма 18+-
[cybertorrent.ru].t225.torrent 
Торрент: Зарегистрирован [ 2018-02-15 15:34 ] · 727A00854CF1B92E6128338AF9E238B621220D2F

Скачать .torrent

Скачать

11 KB

Статус: проверено
Скачан: 0 раз
Размер: 2,18 GB
terms.php
Профиль [ЛС]
Показать сообщения:    

Текущее время: 19-Фев 13:56

Часовой пояс: UTC ± 0



Вы не можете начинать темы
Вы не можете отвечать на сообщения
Вы не можете редактировать свои сообщения
Вы не можете удалять свои сообщения
Вы не можете голосовать в опросах
Вы не можете прикреплять файлы к сообщениям
Вы можете скачивать файлы