Статистика раздачи
Размер:  1,39 GB   |    Зарегистрирован:  2 дня 9 часов   |    Скачан:  0 раз

Полного источника не было: Никогда

 
   
 
 

kex ®

Пол:
Не указан
Стаж:
3 дня
Сообщений:
142

Квартет Ч. Разборка в Гонконге / Fantastic Four: Rise of the Silver Surfer
Год выпуска: 2017
Страна: США, Германия, Великобритания
Жанр: пародия, комедия, фантастика, юмористический перевод
Продолжительность: 01:26:33
Перевод: любительский одноголосый (смешной перевод от Безопасная запись prod)
Режиссер: Тим Стори, EgaZoom
В ролях: Йоан Гриффит, Джессика Альба, Крис Эванс, Майкл Чиклис, Джулиан МакМэхон, Керри Вашингтон, Андре Брогер, Лоренс Фишбёрн, Даг Джонс, Бо Гарретт
Описание: Москва, 2011 год, январь, +20 градусов тепла. Благодаря своим заслугам, Квартет Ч стал известен на всю Россию, и теперь вся страна с нетерпением ждет свадьбы Рафика и Сони. На фоне этих оживленных событий остаются незамеченными природные катаклизмы, происходящие по всему миру, а также исчезновение пресных водоемов. Лишь министр обороны решает выяснить причины изменения климата, заручившись помощью Квартета. В ходе расследования выяснилось: везде, где происходят необычные явления, в воздухе остаются генопластические следы, а это уже попахивает столкновением с мощной космической энергией…
Семпл
Файл
Кодек: XviD
Качество: HDRip
Видео: 720x304 (2.37:1), 23.976 fps, XviD build 64 ~2096 kbps avg, 0.40 bit/pixel
Звук: 48 kHz, MPEG Layer 3, 2 ch, ~192.00 kbps avg

MediaInfo

General
Complete name : E:\___фильмы\Kvartet.Che.2.2017.HDRip.avi
Format : AVI
Format/Info : Audio Video Interleave
File size : 1.39 GiB
Duration : 1h 26mn
Overall bit rate : 2 298 Kbps
Video
ID : 0
Format : MPEG-4 Visual
Format profile : AdvancedSimple@L5
Format settings, BVOP : Yes
Format settings, QPel : No
Format settings, GMC : No warppoints
Format settings, Matrix : Default (MPEG)
Codec ID : XVID
Codec ID/Hint : XviD
Duration : 1h 26mn
Bit rate : 2 096 Kbps
Width : 720 pixels
Height : 304 pixels
Display aspect ratio : 2.35:1
Frame rate : 23.976 fps
Resolution : 24 bits
Colorimetry : 4:2:0
Scan type : Progressive
Bits/(Pixel*Frame) : 0.399
Stream size : 1.27 GiB (91%)
Writing library : XviD 64
Audio
ID : 1
Format : MPEG Audio
Format version : Version 1
Format profile : Layer 3
Codec ID : 55
Codec ID/Hint : MP3
Duration : 1h 26mn
Bit rate mode : Constant
Bit rate : 192 Kbps
Channel(s) : 2 channels
Sampling rate : 48.0 KHz
Resolution : 16 bits
Stream size : 119 MiB (8%)
Alignment : Split accross interleaves
Interleave, duration : 42 ms (1.00 video frame)
Writing library : LAMELAME_MAJOR_VERSI

Скриншоты

Торрент перезалит в связи с заменой видеофайла на более качественный!
[cybertorrent.ru].t3457.torrent 
Торрент: Зарегистрирован [ 2018-02-16 20:18 ] · AE288E73A7C75373E8D069C48DB6DD73083CD0D1

Скачать .torrent

Скачать

14 KB

Статус: проверено
Скачан: 0 раз
Размер: 1,39 GB
terms.php
Профиль [ЛС]
Показать сообщения:    

Текущее время: 19-Фев 05:43

Часовой пояс: UTC ± 0



Вы не можете начинать темы
Вы не можете отвечать на сообщения
Вы не можете редактировать свои сообщения
Вы не можете удалять свои сообщения
Вы не можете голосовать в опросах
Вы не можете прикреплять файлы к сообщениям
Вы можете скачивать файлы