Статистика раздачи
Размер:  558 MB   |    Зарегистрирован:  3 месяца 10 дней   |    Скачан:  0 раз

Полного источника не было: Никогда

Личеров:  1  [  0 KB/s  ]  
 
   
 
 

Бона ®

Пол:
Не указан
Стаж:
3 месяца 11 дней
Сообщений:
395

Битва за Атлантику
Дата/Год выпуска: 2017
Страна: Россия, ООО Продюсерский центр «Простые вещи», ОАО «ТРК ВС РФ «ЗВЕЗДА»
Жанр: Документальный, флот, история, вооружение
Продолжительность: 00:38:59
Перевод: Не требуется
Режиссер: Арман Одрян, Дмитрий Цура
Телеканал: ЗВЕЗДА
Описание: Фильм расскажет о подвиге советских подводников - членов первого экипажа подводного стратегического крейсера К-140. В 1968 году в Северодвинске чуть не произошла радиационная катастрофа. Под угрозой был не только город, но и вся Архангельская область. Русский север был спасён благодаря усилиям командира подлодки К-140 Анатолия Матвеева и его преданного экипажа.
Доп. информация: Авторство релиза - alf62

качество: SATRip
формат: AVI
Видео: 720x400 (1.80:1), 25 fps, XviD build 73 ~1799 kbps avg, 0.25 bit/pixel
Аудио: 48 kHz, AC3 Dolby Digital, 2/0 (L,R) ch, ~192.00 kbps avg

MediaInfo

Битва.за.Атлантику.2017.XviD.SATRip.alf62.avi
Формат : AVI
Формат/Информация : Audio Video Interleave
Размер файла : 558 Мбайт
Продолжительность : 38 м.
Общий поток : 2001 Кбит/сек
Программа кодирования : VirtualDubMod 1.5.10.3 | www.virtualdub-fr.org || (build 2550/release)
Библиотека кодирования : VirtualDubMod build 2550/release
Видео
Идентификатор : 0
Формат : MPEG-4 Visual
Профиль формата : Advanced Simple@L5
Параметр BVOP формата : 2
Параметр QPel формата : Нет
Параметр GMC формата : Без точки перехода
Параметр матрицы формата : Default (MPEG)
Идентификатор кодека : XVID
Идентификатор кодека/Подсказка : XviD
Продолжительность : 38 м.
Битрейт : 1800 Кбит/сек
Ширина : 720 пикселей
Высота : 400 пикселей
Соотношение сторон : 16:9
Частота кадров : 25,000 кадров/сек
Цветовое пространство : YUV
Субдискретизация насыщенности : 4:2:0
Битовая глубина : 8 бит
Тип развёртки : Прогрессивная
Метод сжатия : С потерями
Бит/(Пиксели*Кадры) : 0.250
Размер потока : 502 Мбайт (90%)
Библиотека кодирования : XviD 73
Аудио
Идентификатор : 1
Формат : AC-3
Формат/Информация : Audio Coding 3
Расширение режима : CM (complete main)
Параметр Endianness формата : Big
Идентификатор кодека : 2000
Продолжительность : 38 м.
Вид битрейта : Постоянный
Битрейт : 192 Кбит/сек
Каналы : 2 канала
Расположение каналов : Front: L R
Частота : 48,0 КГц
Битовая глубина : 16 бит
Метод сжатия : С потерями
Размер потока : 53,5 Мбайт (10%)
Выравнивание : Разделение по промежуткам
Продолжительность промежутка : 40 мс. (1,00 видеокадр)
Время предзагрузки промежутка : 500 мс.
[cybertorrent.ru].t3734.torrent 
Торрент: Зарегистрирован [ 2018-02-16 23:01 ] · 209C7641963E90D1723829E4A3F21A8FA83AAA56

Скачать .torrent

Скачать

11 KB

Статус: проверено
Скачан: 0 раз
Размер: 558 MB
Профиль [ЛС]
Показать сообщения:    

Текущее время: 27-Май 05:30

Часовой пояс: UTC ± 0



Вы не можете начинать темы
Вы не можете отвечать на сообщения
Вы не можете редактировать свои сообщения
Вы не можете удалять свои сообщения
Вы не можете голосовать в опросах
Вы не можете прикреплять файлы к сообщениям
Вы можете скачивать файлы