Статистика раздачи
Размер:  217 MB   |    Зарегистрирован:  3 месяца 8 дней   |    Скачан:  0 раз

Полного источника не было: Никогда

 
   
 
 

koljan ®

Пол:
Не указан
Стаж:
3 месяца 10 дней
Сообщений:
472

Зайсан Страна: Казахстан
Жанр: документальный
Продолжительность: 00:13:47
Год выпуска: 2007
Перевод: не требуется
Субтитры: отсутствуют-Режиссер: Анатолий Лаптев
Описание: Документальный фильм о природе озера Зайсан.-Семпл: http://sendfile.su/1384989-Качество: SATRip [Ел Арна] (эфир 14.12.2017)
Формат: AVI
Видео: XviD 67, 688x480, 25 fps, ~2000 kbps, 0.242 bit/pixel
Аудио: [RUS] 48 kHz, MP2, 2 ch, 192 kbps

Mediainfo

Общее
Полное имя : F:\Зайсан (2008).avi
Формат : AVI
Формат/Информация : Audio Video Interleave
Размер файла : 217 Мбайт
Продолжительность : 13 м. 47 с.
Общий поток : 2201 Кбит/сек
Программа кодирования : VirtualDubMod 1.5.10.2 (build 2540/release)
Библиотека кодирования : VirtualDubMod build 2540/release
Видео
Идентификатор : 0
Формат : MPEG-4 Visual
Профиль формата : Advanced Simple@L5
Параметр BVOP формата : 2
Параметр QPel формата : Нет
Параметр GMC формата : Без точки перехода
Параметр матрицы формата : Default (H.263)
Идентификатор кодека : XVID
Идентификатор кодека/Подсказка : XviD
Продолжительность : 13 м. 47 с.
Битрейт : 2000 Кбит/сек
Ширина : 688 пикселей
Высота : 480 пикселей
Соотношение сторон : 1,433
Частота кадров : 25,000 кадров/сек
Цветовое пространство : YUV
Субдискретизация насыщенности : 4:2:0
Битовая глубина : 8 бит
Тип развёртки : Прогрессивная
Метод сжатия : С потерями
Бит/(Пиксели*Кадры) : 0.242
Размер потока : 197 Мбайт (91%)
Библиотека кодирования : XviD 67
Аудио
Идентификатор : 1
Формат : MPEG Audio
Версия формата : Version 1
Профиль формата : Layer 2
Идентификатор кодека : 50
Продолжительность : 13 м. 46 с.
Вид битрейта : Постоянный
Битрейт : 192 Кбит/сек
Каналы : 2 канала
Частота : 48,0 КГц
Метод сжатия : С потерями
Размер потока : 18,9 Мбайт (9%)
Выравнивание : Соединение по промежуткам
Продолжительность промежутка : 40 мс. (1,00 видеокадр)
Время предзагрузки промежутка : 504 мс.

Скриншоты

[cybertorrent.ru].t4002.torrent 
Торрент: Зарегистрирован [ 2018-02-17 01:52 ] · 7E66AA04EE8594F91F088604185C246ADF9CA5AC

Скачать .torrent

Скачать

18 KB

Статус: проверено
Скачан: 0 раз
Размер: 217 MB
Профиль [ЛС]
Показать сообщения:    

Текущее время: 25-Май 20:40

Часовой пояс: UTC ± 0



Вы не можете начинать темы
Вы не можете отвечать на сообщения
Вы не можете редактировать свои сообщения
Вы не можете удалять свои сообщения
Вы не можете голосовать в опросах
Вы не можете прикреплять файлы к сообщениям
Вы можете скачивать файлы