Статистика раздачи
Размер:  2,17 GB   |    Зарегистрирован:  2 месяца 8 дней   |    Скачан:  0 раз

Полного источника не было: Никогда

 
   
 
 

Антошка ®

Пол:
Не указан
Стаж:
2 месяца 10 дней
Сообщений:
127

Гарри Поттер и философский камень / Harry Potter and the Sorcerer's Stone
Страна: Великобритания, США
Жанр: фэнтези, приключения, семейный
Год выпуска: 2001
Продолжительность: 02:32:21
Перевод: Профессиональный (двухголосый закадровый) SDI Media
Субтитры: нет
Режиссер: Крис Коламбус / Chris Columbus
В ролях: Дэниэл Рэдклифф, Руперт Гринт, Эмма Уотсон, Ричард Харрис, Алан Рикман, Мэгги Смит, Робби Колтрейн
Описание: Гарри Поттер остается полным сиротой, когда его родителей убивает Лорд Волан-де-Морт, самый сильный и зловещий маг всех времен. Ребенок попадает в семью своей тетки и ее мужа, которые терпеть не могут магию и скрывают от Гарри, что он наделен сверхъестественными способностями. Но вскоре ребенок сам открывает, что может понимать язык животных и заставлять исчезать разные предметы просто силой своего воображения. За неделю до его одиннадцатого дня рождения к Гарри прилетают совы с письмом, в котором мальчика приглашают учиться в Хогвартсе - школе для юных волшебников...
Доп. информация: Выражаю огромную благодарность Нордеру за синхронизацию звуковой дорожки. За дорогу благодарим Slim9174..
Сэмпл: http://multi-up.com/1185224
Качество видео: BDRip (Исходник BDRemux 1080p)
Формат видео: AVI
Видео: XviD 73, 720x304, (2,35:1), 23,976 fps, 1834 Кбит/с, 8 бит, 0.35 bit/pixel
Аудио: Русский (АС3, 2 ch (Front: L R), 48,0 KHz, 192 Kbps)

MediaInfo

Общее
Полное имя : H:\Фильмы на трекер\Гарри Поттер и философский камень (приключения, семейный 2001 год).avi
Формат : AVI
Формат/Информация : Audio Video Interleave
Профиль формата : OpenDML
Размер файла : 2,17 Гбайт
Продолжительность : 2 ч. 32 м.
Общий поток : 2038 Кбит/сек
Программа кодирования : VirtualDubMod 1.5.10.2 (build 2540/release)
Библиотека кодирования : VirtualDubMod build 2540/release
Видео
Идентификатор : 0
Формат : MPEG-4 Visual
Профиль формата : Advanced Simple@L5
Параметр BVOP формата : 2
Параметр QPel формата : Нет
Параметр GMC формата : Без точки перехода
Параметр матрицы формата : Выборочная
Идентификатор кодека : XVID
Идентификатор кодека/Подсказка : XviD
Продолжительность : 2 ч. 32 м.
Битрейт : 1834 Кбит/сек
Ширина : 720 пикселей
Высота : 304 пикселя
Соотношение сторон : 2,35:1
Частота кадров : 23,976 (23976/1000) кадра/сек
Цветовое пространство : YUV
Субдискретизация насыщенности : 4:2:0
Битовая глубина : 8 бит
Тип развёртки : Прогрессивная
Метод сжатия : С потерями
Бит/(Пиксели*Кадры) : 0.350
Размер потока : 1,95 Гбайт (90%)
Библиотека кодирования : XviD 73
Аудио
Идентификатор : 1
Формат : AC-3
Формат/Информация : Audio Coding 3
Расширение режима : CM (complete main)
Параметр Endianness формата : Big
Идентификатор кодека : 2000
Продолжительность : 2 ч. 32 м.
Вид битрейта : Постоянный
Битрейт : 192 Кбит/сек
Каналы : 2 канала
Расположение каналов : Front: L R
Частота : 48,0 КГц
Частота кадров : 31,250 кадров/сек (1536 spf)
Метод сжатия : С потерями
Размер потока : 209 Мбайт (9%)
Выравнивание : Разделение по промежуткам
Продолжительность промежутка : 42 мс. (1,00 видеокадр)
Время предзагрузки промежутка : 500 мс.

Скриншот c названием фильма

Скриншоты

[cybertorrent.ru].t4791.torrent 
Торрент: Зарегистрирован [ 2018-02-17 07:24 ] · FE0BC2F4854EA83D7E308C1358D14259F78E6756

Скачать .torrent

Скачать

11 KB

Статус: проверено
Скачан: 0 раз
Размер: 2,17 GB
Профиль [ЛС]
Показать сообщения:    

Текущее время: 25-Апр 21:55

Часовой пояс: UTC ± 0



Вы не можете начинать темы
Вы не можете отвечать на сообщения
Вы не можете редактировать свои сообщения
Вы не можете удалять свои сообщения
Вы не можете голосовать в опросах
Вы не можете прикреплять файлы к сообщениям
Вы можете скачивать файлы