Статистика раздачи
Размер:  14,02 GB   |    Зарегистрирован:  3 месяца 9 дней   |    Скачан:  0 раз

Полного источника не было: Никогда

 
   
 
 

FibYar ®

Пол:
Не указан
Стаж:
3 месяца 10 дней
Сообщений:
227

Крымские истории
Премьера на канале РЕН ТВ!
Год выпуска: 2014 г.
Страна: Россия
Жанр: Документальное расследование
Продолжительность: по ~48 мин и 1час 36 мин.
Руководитель проекта: Игорь Прокопенко
Режиссеры: Алексей Чистов, Артемий Гринчевский
Перевод: Не требуется
Русские субтитры: нет
Описание: Крым. Вот уже месяц это слово не сходит с новостных лент. Спецслужбы всего мира ведут настоящую войну за полуостров. Что на самом деле представляет из себя эта земля. Колыбель высокоразвитой цивилизации? Последний форпост Атлантиды? Место где хранится Святой Грааль? Документальное расследование РЕН-ТВ - Крымские истории.
1-я история «Тайна Золотой Колыбели»;
2-я история «Крымская Атлантида»;
3-я история «По следам исчезнувших цивилизаций».

Релиз группы:
Качество: DVB
Формат: MPEG-PS
Видео: MPEG2 Video, 720x576 (4:3), 25 fps, 9900 kbps
Аудио: MPEG Audiо, 2 сh, 48 kHz, 224 kbps

MediaInfo:

Общее
Полное имя : G:\Torrents\Krymskie_istorii_(REN_TV)-28.03.2014_[rutracker.org]\Krymskie_istorii-1_Tajna_Zolotoj_kolybeli_28.03.2014.mpg
Формат : MPEG-PS
Размер файла : 3,48 Гбайт
Продолжительность : 47 м.
Общий поток : 10,4 Мбит/сек
Библиотека кодирования : (c) 1998-2009 Womble Multimedia, Inc. / MPEG Video Wizard (03/2009) / Dec 24 2009
Видео
Идентификатор : 224 (0xE0)
Формат : MPEG Video
Версия формата : Version 2
Профиль формата : High@High
Параметр BVOP формата : Да
Параметр матрицы формата : По умолчанию
Параметр GOP формата : M=3, N=15
Продолжительность : 47 м.
Битрейт : 10,0 Мбит/сек
Ширина : 720 пикселей
Высота : 576 пикселей
Соотношение сторон : 4:3
Частота кадров : 50,000 кадров/сек
Стандарт вещания : PAL
Цветовое пространство : YUV
Субдискретизация насыщенности : 4:2:0
Битовая глубина : 8 бит
Тип развёртки : Прогрессивная
Метод сжатия : С потерями
Бит/(Пиксели*Кадры) : 0.484
Размер потока : 3,34 Гбайт (96%)
Выравнивание : (c) 1998-2009 Womble Multimedia, Inc. / MPEG Video Wizard (03/2009) / Dec 24 2009
Заголовок : (c) 1998-2009 Womble Multimedia, Inc. / MPEG Video Wizard (03/2009) / Dec 24 2009
Библиотека кодирования : (c) 1998-2009 Womble Multimedia, Inc. / MPEG Video Wizard (03/2009) / Dec 24 2009
Основные цвета : BT.601 PAL
Характеристики трансфера : BT.470 System B, BT.470 System G
Коэффициенты матрицы : BT.601
Аудио
Идентификатор : 192 (0xC0)
Формат : MPEG Audio
Версия формата : Version 1
Профиль формата : Layer 2
Продолжительность : 47 м.
Вид битрейта : Постоянный
Битрейт : 224 Кбит/сек
Каналы : 2 канала
Частота : 48,0 КГц
Метод сжатия : С потерями
Задержка видео : -20 мс.
Размер потока : 76,7 Мбайт (2%)

Скриншоты (превью, увеличение по клику):

Добавил: 3-я история «По следам исчезнувших цивилизаций» (эфир 28.03.2014). Пожалуйста, обновите торрент-файл.
На раздаче по возможности, ~20 Mb/s. > [Что от меня зависит, сделал. Остальное зависит от Вас, трекера и наших провайдеров.]
[cybertorrent.ru].t1841.torrent 
Торрент: Зарегистрирован [ 2018-02-16 08:44 ] · 03891EE1B3670D0575DA99FF21A6B6557D84BCC9

Скачать .torrent

Скачать

71 KB

Статус: проверено
Скачан: 0 раз
Размер: 14,02 GB
Профиль [ЛС]
Показать сообщения:    

Текущее время: 25-Май 20:16

Часовой пояс: UTC ± 0



Вы не можете начинать темы
Вы не можете отвечать на сообщения
Вы не можете редактировать свои сообщения
Вы не можете удалять свои сообщения
Вы не можете голосовать в опросах
Вы не можете прикреплять файлы к сообщениям
Вы можете скачивать файлы