Статистика раздачи
Размер:  383 MB   |    Зарегистрирован:  5 дней   |    Скачан:  0 раз

Полного источника не было: Никогда

Личеров:  1  [  0 KB/s  ]   Подробная статистика пиров
 
   
 
 

Бона ®

Пол:
Не указан
Стаж:
6 дней
Сообщений:
174

Профессия – репортер. Взорвать ДнепроГЭС или ядерная осень Коломойского
Дата/Год выпуска: 07/09/2014
Страна: Россия
Жанр: Документальный
Продолжительность: 00:29:57
Перевод: Не требуется
Телеканал: НТВ
Описание: Подрыв Днепропетровской ГЭС — чудовищный план Коломойского. Кто выживет после самого крупного теракта за всю историю человечества? Что будет, когда волна дойдет до атомной станции? Как личная гвардия губернатора добралась до оружия массового поражения и сколько стоит личный бункер Коломойского? «Ядерная осень Коломойского» — фильм из цикла «Профессия – репортер».
качество: SATRip
формат: AVI
Видео: MPEG4, XviD, 720x448 (1.607), 25.000 fps, ~1650 Kbps, 0.205 bit/pixel
Аудио: Layer 3, 48.0 KHz, 2 ch, 128 Kbps

MediaInfo

Формат : AVI
Формат/Информация : Audio Video Interleave
Размер файла : 383 Мбайт
Продолжительность : 29 м.
Общий поток : 1788 Кбит/сек
Видео
Идентификатор : 0
Формат : MPEG-4 Visual
Профиль формата : Advanced Simple@L5
Параметр BVOP формата : 2
Параметр QPel формата : Нет
Параметр GMC формата : Без точки перехода
Параметр матрицы формата : Default (H.263)
Идентификатор кодека : XVID
Идентификатор кодека/Подсказка : XviD
Продолжительность : 29 м.
Битрейт : 1650 Кбит/сек
Ширина : 720 пикселей
Высота : 448 пикселей
Соотношение сторон : 16:10
Частота кадров : 25,000 кадров/сек
Цветовое пространство : YUV
Субдискретизация насыщенности : 4:2:0
Битовая глубина : 8 бит
Тип развёртки : Прогрессивная
Метод сжатия : С потерями
Бит/(Пиксели*Кадры) : 0.205
Размер потока : 354 Мбайт (92%)
Библиотека кодирования : XviD 64
Аудио
Идентификатор : 1
Формат : MPEG Audio
Версия формата : Version 1
Профиль формата : Layer 3
Режим : Joint stereo
Идентификатор кодека : 55
Идентификатор кодека/Подсказка : MP3
Продолжительность : 29 м.
Вид битрейта : Постоянный
Битрейт : 128 Кбит/сек
Каналы : 2 канала
Частота : 48,0 КГц
Метод сжатия : С потерями
Размер потока : 27,4 Мбайт (7%)
Выравнивание : Разделение по промежуткам
Продолжительность промежутка : 40 мс. (1,00 видеокадр)
Время предзагрузки промежутка : 500 мс.

Скриншоты

[cybertorrent.ru].t1980.torrent 
Торрент: Зарегистрирован [ 2018-02-16 08:44 ] · 2BAEBCCF9FDA0AC1A413733B0F738B3A83002CD5

Скачать .torrent

Скачать

8 KB

Статус: проверено
Скачан: 0 раз
Размер: 383 MB
terms.php
Профиль [ЛС]
Показать сообщения:    

Текущее время: 21-Фев 18:36

Часовой пояс: UTC ± 0



Вы не можете начинать темы
Вы не можете отвечать на сообщения
Вы не можете редактировать свои сообщения
Вы не можете удалять свои сообщения
Вы не можете голосовать в опросах
Вы не можете прикреплять файлы к сообщениям
Вы можете скачивать файлы