Статистика раздачи
Размер:  2,18 GB   |    Зарегистрирован:  3 месяца 10 дней   |    Скачан:  0 раз

Полного источника не было: Никогда

 
   
 
 

lopster ®

Пол:
Не указан
Стаж:
3 месяца 10 дней
Сообщений:
612

-28 панфиловцев--Год выпуска: 2016Жанр: военный, драмаПродолжительность: 02:00:38--Режиссер:Ким Дружинин, Андрей Шальопа-В ролях:Александр Устюгов, Яков Кучеревский, Азамат Нигманов, Олег Фёдоров, Алексей Морозов, Антон Кузнецов, Алексей Лонгин, Максим Белбородов, Дмитрий Мурашев, Виталий Коваленко-Описание:
Осенью 1941-го года немецкие части, стоявшие возле Волоколамска, отделяло от Москвы каких-нибудь два часа по шоссе. Однако, на этом шоссе стояла 316-я стрелковая дивизия под командованием генерала И. В. Панфилова. Этот военачальник обладал настолько высоким авторитетом среди личного состава, что бойцы дивизии сами называли себя панфиловцами. А дивизию — панфиловской.
--Дополнительная информация:- -Сэмпл Рип НЕ совместим с бытовыми DVD-проигрывателями.--Качество видео: BDRip-AVC (Исходник: Blu-ray Disc 1080p )
Формат видео: MKV
Видео: AVC (x264), 1024x428 (2.39:1), 24.000 fps, ~2133 kbps avg, 0.203 bit/pixel
Аудио: 48 kHz, AC3 Dolby Digital, 3/2 (L,C,R,l,r) + LFE ch, 448 kbps
Главы: есть-

MediaInfo/log

log

x264 [info]: frame I:1066 Avg QP:17.21 size: 67969
x264 [info]: frame P:38845 Avg QP:20.15 size: 22875
x264 [info]: frame B:133812 Avg QP:19.79 size: 7242
x264 [info]: consecutive B-frames: 1.7% 5.2% 6.0% 25.7% 19.0% 29.3% 5.9% 1.5% 1.0% 2.6% 0.3% 0.2% 0.4% 0.7% 0.2% 0.0% 0.3%
x264 [info]: mb I I16..4: 3.2% 75.5% 21.3%
x264 [info]: mb P I16..4: 0.6% 13.1% 1.6% P16..4: 29.4% 32.3% 12.4% 0.0% 0.0% skip:10.5%
x264 [info]: mb B I16..4: 0.1% 1.4% 0.2% B16..8: 32.9% 20.7% 3.8% direct: 6.9% skip:34.1% L0:41.3% L1:42.9% BI:15.8%
x264 [info]: 8x8 transform intra:83.6% inter:59.8%
x264 [info]: direct mvs spatial:97.3% temporal:2.7%
x264 [info]: coded y,uvDC,uvAC intra: 90.7% 75.3% 44.5% inter: 29.9% 19.0% 6.9%
x264 [info]: i16 v,h,dc,p: 10% 13% 6% 71%
x264 [info]: i8 v,h,dc,ddl,ddr,vr,hd,vl,hu: 7% 8% 6% 10% 14% 13% 15% 12% 16%
x264 [info]: i4 v,h,dc,ddl,ddr,vr,hd,vl,hu: 10% 8% 6% 8% 15% 14% 15% 11% 14%
x264 [info]: i8c dc,h,v,p: 39% 30% 16% 15%
x264 [info]: Weighted P-Frames: Y:13.4% UV:5.6%
x264 [info]: ref P L0: 49.1% 13.9% 14.5% 6.7% 4.7% 3.6% 2.8% 1.8% 1.4% 1.2% 0.1% 0.0%
x264 [info]: ref B L0: 78.7% 10.0% 4.6% 2.3% 1.6% 1.2% 0.9% 0.4% 0.2%
x264 [info]: ref B L1: 95.8% 4.2%
x264 [info]: kb/s:2133.13
General
Unique ID : 230083511577481230622698860919641873849 (0xAD1878F382D48F27A969498AA0601DB9)
Complete name : \28_panfilovzev_(2016).BDRip-AVC.ac3_[All.Films][RG].mkv
Format : Matroska
Format version : Version 2
File size : 2.18 GiB
Duration : 2 h 0 min
Overall bit rate : 2 583 kb/s
Movie name : 28 панфиловцев (2016) BDRip-AVC | [All.Films][RG][rutracker.org]
Encoded date : UTC 2017-02-18 18:48:08
Writing application : mkvmerge v7.8.0 ('River Man') 32bit built on Apr 3 2015 12:11:22
Writing library : libebml v1.3.1 + libmatroska v1.4.2
Video
ID : 1
Format : AVC
Format/Info : Advanced Video Codec
Format profile : High@L4.1
Format settings, CABAC : Yes
Format settings, ReFrames : 10 frames
Codec ID : V_MPEG4/ISO/AVC
Duration : 2 h 0 min
Bit rate : 2 134 kb/s
Width : 1 024 pixels
Height : 428 pixels
Display aspect ratio : 2.40:1
Frame rate mode : Constant
Frame rate : 24.000 FPS
Color space : YUV
Chroma subsampling : 4:2:0
Bit depth : 8 bits
Scan type : Progressive
Bits/(Pixel*Frame) : 0.203
Stream size : 1.76 GiB (81%)
Writing library : x264 core 148 r2744kMod b97ae06
Encoding settings : cabac=1 / ref=10 / deblock=1:-2:-2 / analyse=0x3:0x113 / me=umh / subme=11 / psy=1 / fade_compensate=0.00 / psy_rd=1.00:0.00 / mixed_ref=1 / me_range=42 / chroma_me=1 / trellis=2 / 8x8dct=1 / cqm=0 / deadzone=21,11 / fast_pskip=0 / chroma_qp_offset=-2 / threads=6 / lookahead_threads=1 / sliced_threads=0 / nr=0 / decimate=0 / interlaced=0 / bluray_compat=0 / constrained_intra=0 / bframes=16 / b_pyramid=2 / b_adapt=2 / b_bias=0 / direct=3 / weightb=1 / open_gop=0 / weightp=2 / keyint=240 / keyint_min=23 / scenecut=40 / intra_refresh=0 / rc_lookahead=60 / rc=2pass / mbtree=0 / bitrate=2134 / ratetol=1.0 / qcomp=0.60 / qpmin=0 / qpmax=69 / qpstep=4 / cplxblur=20.0 / qblur=0.5 / vbv_maxrate=14000 / vbv_bufsize=14000 / nal_hrd=none / filler=0 / ip_ratio=1.40 / pb_ratio=1.30 / aq=3:1.00 / zones=153870,1736724,q=30
Language : English
Default : Yes
Forced : No
Audio
ID : 2
Format : AC-3
Format/Info : Audio Coding 3
Mode extension : CM (complete main)
Format settings, Endianness : Big
Codec ID : A_AC3
Duration : 2 h 0 min
Bit rate mode : Constant
Bit rate : 448 kb/s
Channel(s) : 6 channels
Channel positions : Front: L C R, Side: L R, LFE
Sampling rate : 48.0 kHz
Frame rate : 31.250 FPS (1536 spf)
Compression mode : Lossy
Stream size : 387 MiB (17%)
Language : Russian
Default : Yes
Forced : No
Menu
00:00:00.000 : en:Глава 1
00:01:24.375 : en:Глава 2
00:11:59.208 : en:Глава 3
00:26:15.791 : en:Глава 4
00:38:43.625 : en:Глава 5
00:55:16.416 : en:Глава 6
01:12:21.333 : en:Глава 7
01:25:35.500 : en:Глава 8
01:38:52.333 : en:Глава 9

FAQ по просмотру MKV/h.264/AAC

  • Смогу ли я запустить AVC фильм на своём компьютере?
  • Сампл из раздачи не воспроизводится/тормозит или отсутствует звук/изображение. Что делать?
  • Что такое H.264/AVC и зачем он нужен?
  • Что за дурацкий формат .MKV?
  • Почему MKV? Чем AVI хуже?
  • Не могу переключить/включить/выключить аудио/видео дорожки и/или субтитры. Что делать?
  • Как сделать так, чтобы по умолчанию при просмотре MKV файлов нужные/ненужные субтитры были включены/выключены, и/или сразу проигрывалась дорожка на нужном мне языке?
  • Будут ли фильмы в таком формате проигрываться на бытовых плеерах без компьютера?
  • Проигрываю фильм, а картинка очень сильно отличается от скринов/бледная/перенасыщенная. Что не так?
  • Можно ли сконвертировать AVC в DVD?
  • Почему сплюснута картинка / в характеристиках видео указано два разрешения / что такое анаморфное разрешение?
  • Зачем релизёры обманывают качающих и пишут в заголовке 720p/1080p, а на самом деле раздают видеоматериалы в непонятных разрешениях?
  • Можно ли вывести многоканальный FLAC/AAC-звук на внешний ресивер?
  • У меня 2-канальная акустика/стереонаушники. При просмотре видео почти не слышно/совсем не слышно речь/разговоры, играют только фоновые звуки. Что делать?
  • У меня стоит CoreAVC версии 1.9.5 или младше. При воспроизведении картинка рассыпается на квадраты и разноцветные пятна. Кривой рип?
  • Всё прочитал(-а), решения своей проблемы не нашёл(-шла)/не смог(-ла) разобраться. Что делать?
  • [cybertorrent.ru].t205.torrent 
    Торрент: Зарегистрирован [ 2018-02-15 15:34 ] · E917B9047E97A38D906F8534642143B06E2CD995

    Скачать .torrent

    Скачать

    11 KB

    Статус: проверено
    Скачан: 0 раз
    Размер: 2,18 GB
    Профиль [ЛС]
    Показать сообщения:    

    Текущее время: 26-Май 08:05

    Часовой пояс: UTC ± 0



    Вы не можете начинать темы
    Вы не можете отвечать на сообщения
    Вы не можете редактировать свои сообщения
    Вы не можете удалять свои сообщения
    Вы не можете голосовать в опросах
    Вы не можете прикреплять файлы к сообщениям
    Вы можете скачивать файлы