Статистика раздачи
Размер:  1,37 GB   |    Зарегистрирован:  3 месяца 10 дней   |    Скачан:  0 раз

Полного источника не было: Никогда

 
   
 
 

lopster ®

Пол:
Не указан
Стаж:
3 месяца 10 дней
Сообщений:
612

Плохая соседка
Жанр: Мелодрама
Год выпуска: 2015
Продолжительность: 01:34:46
Режиссёр: Роман Барабаш
В ролях: Анастасия Задорожная, Илья Иосифов, Ада Роговцева, Валерия Ходос, Жанна Эппле, Таисия Шипилова, Сергей Калантай, Александр Игнатуша, Виталий Салий, Екатерина Гулякова
Описание: 23-летняя Катя - гример из провинциального театра. Она привлекательна и хочет добиться успеха в жизни. Для этого она приезжает в большой город. Девушка уверена, что удача всегда на ее стороне, и у нее все получится! Иначе и быть не может! Но судьба все время испытывает Катин оптимизм на прочность. Не заблудится ли Катя в мире больших возможностей? Сможет ли понять, что по-настоящему важно, а что – второстепенно? Сумеет ли выстоять?
Сэмпл: http://multi-up.com/1141461
Качество видео: WEB-DLRip
Формат видео: AVI
Видео: 720х400 (16:9), 25.000 fps, XviD build 73, 1 863 Kbps, 0.26 Bits/Pixel
Аудио: 48 kHz, AC3 Dolby Digital, 2 ch, 192 Kbps-Релиз от MegaPeer-

MediaInfo

General
Complete name : Downloads\Плохая соседка.2015.XviD.MegaPeer.avi
Format : AVI
Format/Info : Audio Video Interleave
File size : 1.37 GiB
Duration : 1h 34mn
Overall bit rate : 2 063 Kbps
Video #0
ID : 0
Format : MPEG-4 Visual
Format profile : Advanced Simple@L5
Format settings, BVOP : 1
Format settings, QPel : No
Format settings, GMC : No warppoints
Format settings, Matrix : Custom
Codec ID : XVID
Codec ID/Hint : XviD
Duration : 1h 34mn
Bit rate : 1 863 Kbps
Width : 720 pixels
Height : 400 pixels
Display aspect ratio : 16:9
Frame rate : 25.000 fps
Color space : YUV
Chroma subsampling : 4:2:0
Bit depth : 8 bits
Scan type : Progressive
Compression mode : Lossy
Bits/(Pixel*Frame) : 0.259
Stream size : 1.23 GiB (90%)
Writing library : XviD 73
Audio #1
ID : 1
Format : AC-3
Format/Info : Audio Coding 3
Mode extension : CM (complete main)
Format settings, Endianness : Big
Codec ID : 2000
Duration : 1h 34mn
Bit rate mode : Constant
Bit rate : 192 Kbps
Channel(s) : 2 channels
Channel positions : Front: L R
Sampling rate : 48.0 KHz
Bit depth : 16 bits
Compression mode : Lossy
Stream size : 130 MiB (9%)
Alignment : Aligned on interleaves
Interleave, duration : 64 ms (1.60 video frames)
Interleave, preload duration : 192 ms
Title : Original

Скриншот c названием фильма

Скриншоты

[cybertorrent.ru].t206.torrent 
Торрент: Зарегистрирован [ 2018-02-15 15:34 ] · C432F926F16A74389E122FEC8DC30824F8DFFBFC

Скачать .torrent

Скачать

14 KB

Статус: проверено
Скачан: 0 раз
Размер: 1,37 GB
Профиль [ЛС]
Показать сообщения:    

Текущее время: 26-Май 08:03

Часовой пояс: UTC ± 0



Вы не можете начинать темы
Вы не можете отвечать на сообщения
Вы не можете редактировать свои сообщения
Вы не можете удалять свои сообщения
Вы не можете голосовать в опросах
Вы не можете прикреплять файлы к сообщениям
Вы можете скачивать файлы