Статистика раздачи
Размер:  2,19 GB   |    Зарегистрирован:  3 дня   |    Скачан:  0 раз

Полного источника не было: Никогда

 
   
 
 

lopster ®

Пол:
Не указан
Стаж:
4 дня
Сообщений:
509

Август. Восьмого / War Zone / FRA Transfer
-BDRip-AVC | BDRip-Жанр: драма, военный
Год выпуска: 2012
Продолжительность: 02:12:18
Режиссёр: Джаник Файзиев
В ролях: Светлана Иванова, Максим Матвеев, Егор Бероев, Артем Фадеев, Александр Олешко, Алексей Гуськов, Хасан Бароев, Владимир Вдовиченков, Гоша Куценко, Сергей Газаров, Анатолий Белый, Лидия Вележева, Владимир Зайцев, Константин Самоуков, Александр Петров, Анна Легчилова, Кирилл Плетнев, Александр Хошабаев, Валентин Варецкий, Руслан Пухов, Александр Дубина, Джаник Файзиев
Описание: Когда события нанизываются одно на другое, когда каждая минута ставит тебя перед выбором, когда жизнь и смерть становятся частью страшной компьютерной игры, пульт от которой — в чужих руках, тогда ты начинаешь действовать так, будто каждая минута — последняя. Казалось бы, жизнь хорошенькой разведенной москвички Ксении оставляет не много места для драматических ситуаций: да, сын Тёма тяжело переживает развод родителей, да, поклонник поглощен карьерой, да, мама вмешивается в личную жизнь, — но трудно назвать эти обстоятельства критическими. Всё меняется, когда бывший муж, офицер миротворческих сил, просит Ксению прислать Тёму к нему - подышать горным воздухом в прекрасной деревушке в доме его родителей. Он уверяет, что это совершенно безопасно, да маленький Тёма и не чувствует никакого страха - ведь рядом папа, добрый и непобедимый герой. Но наступает день, когда вражеские танки входят в город — и мир самых страшных игровых иллюзий мальчика становится реальностью...
Доп. информация: Сравнение с раздачей http://rutracker.org/forum/viewtopic.php?t=4054550 -> http://screenshotcomparison.com/comparison/201036
Сравнения сэмплов одного и тоже эпизода фильма -> RUS Transfer и FRA Transfer
Главное отличие от российского издания:
Цитата:
В фильме есть две сцены, где Президент обсуждает текущую ситуацию с министрами и советниками в просторной комнате со светлыми стенами. В альтернативном варианте действие происходит в большом зале, стилизованном под старинную палату Кремля, но при этом актёрский состав и реплики остаются прежними. Этих альтернативных сцен нет на российском издании и вхданный момент они есть только в иностранных изданиях.
Сэмпл: https://m.sendspace.com/file/iqurc7
Качество видео: BDRip Исходник
Формат видео: AVI
Видео: XviD / 1967 kbps / 720x304 / 23.976 fps
Аудио: AC3 / 6 ch / 384 kbps / 48 kHz

MediaInfo

General
Complete name : J:\Torrents\Готовые релизы\Август. Восьмого (2012) BDRip [FRA Transfer].avi
Format : AVI
Format/Info : Audio Video Interleave
Format profile : OpenDML
File size : 2.19 GiB
Duration : 2h 12mn
Overall bit rate : 2 365 Kbps
Video
ID : 0
Format : MPEG-4 Visual
Format profile : Advanced Simple@L5
Format settings, BVOP : 1
Format settings, QPel : No
Format settings, GMC : No warppoints
Format settings, Matrix : Default (MPEG)
Codec ID : XVID
Codec ID/Hint : XviD
Duration : 2h 12mn
Bit rate : 1 967 Kbps
Width : 720 pixels
Height : 304 pixels
Display aspect ratio : 2.35:1
Frame rate : 23.976 (23976/1000) fps
Color space : YUV
Chroma subsampling : 4:2:0
Bit depth : 8 bits
Scan type : Progressive
Compression mode : Lossy
Bits/(Pixel*Frame) : 0.375
Stream size : 1.82 GiB (83%)
Writing library : XviD 64
Audio
ID : 1
Format : AC-3
Format/Info : Audio Coding 3
Mode extension : CM (complete main)
Format settings, Endianness : Big
Codec ID : 2000
Duration : 2h 12mn
Bit rate mode : Constant
Bit rate : 384 Kbps
Channel(s) : 6 channels
Channel positions : Front: L C R, Side: L R, LFE
Sampling rate : 48.0 KHz
Frame rate : 31.250 fps (1536 spf)
Compression mode : Lossy
Stream size : 363 MiB (16%)
Alignment : Aligned on interleaves
Interleave, duration : 32 ms (0.77 video frame)

Скриншот c названием фильма

Скриншоты

[cybertorrent.ru].t207.torrent 
Торрент: Зарегистрирован [ 2018-02-15 15:34 ] · 880D10A0226F3BF9A0588A8D7BE07FF1EBFA4058

Скачать .torrent

Скачать

12 KB

Статус: проверено
Скачан: 0 раз
Размер: 2,19 GB
terms.php
Профиль [ЛС]
Показать сообщения:    

Текущее время: 19-Фев 13:58

Часовой пояс: UTC ± 0



Вы не можете начинать темы
Вы не можете отвечать на сообщения
Вы не можете редактировать свои сообщения
Вы не можете удалять свои сообщения
Вы не можете голосовать в опросах
Вы не можете прикреплять файлы к сообщениям
Вы можете скачивать файлы