Статистика раздачи
Размер:  1000 MB   |    Зарегистрирован:  3 месяца 9 дней   |    Скачан:  0 раз

Полного источника не было: Никогда

 
   
 
 

plus ®

Пол:
Не указан
Стаж:
3 месяца 10 дней
Сообщений:
313

Искатели - "Загадка русского Нострадамуса".
Год выпуска: 2014
Страна: Россия
Жанр: Документальный
Продолжительность: 00:44:11
Перевод: Не требуется

Описание

Цикл познавательно-приключенческих программ, посвященный общественно значимым событиям истории России и зарубежья, а также частным историям известных людей, которые оставили потомкам много вопросов и тайн. Жанр цикла – историческое расследование, "телевизионные приключения для взрослых". Чтобы разгадать очередную тайну, "Искатели" исследуют как летописные источники, так и находки, обнаруженные непосредственно на месте исторических событий .
В выпуске: В XIX веке легендарный монах Авель якобы предсказал ряд исторических событий, включая даты смертей русских императоров и падение царской России в начале XX века. Александр I сослал монаха в Соловецкий монастырь, где Авель написал новую книгу, в которой предсказал сожжение Москвы французами, и после того, как предсказание сбылось, он был выпущен на свободу.
Мы постараемся узнать, существуют ли реальные подтверждения всей этой захватывающей истории, а, может, не было не только предсказаний, но и самого русского Нострадамуса? И почему тысячи людей поверили в существование монаха-прорицателя?
Качество видео: DVB
Формат видео: MPEG-PS
Видео: MPEG2 Video, 720x576 (4:3), 25 fps, 2900 kbps
Аудио: MPEG Audiо, 2 сh, 48 kHz, 192 kbps
Трансляция спутникового канала:

MediaInfo

General
Complete name : C:\Искатели.Загадка русского Нострадамуса. (2014)_DVB by SLuMeP.mpg
Format : MPEG-PS
File size : 1 000 MiB
Duration : 44mn 11s
Overall bit rate mode : Variable
Overall bit rate : 3 164 Kbps
Video
ID : 224 (0xE0)
Format : MPEG Video
Format version : Version 2
Format profile : Main@Main
Format settings, BVOP : No
Format settings, Matrix : Custom
Format settings, GOP : Variable
Duration : 44mn 11s
Bit rate mode : Variable
Bit rate : 2 909 Kbps
Maximum bit rate : 15.0 Mbps
Width : 720 pixels
Height : 576 pixels
Display aspect ratio : 4:3
Frame rate : 25.000 fps
Standard : PAL
Color space : YUV
Chroma subsampling : 4:2:0
Bit depth : 8 bits
Scan type : Interlaced
Scan order : Top Field First
Compression mode : Lossy
Bits/(Pixel*Frame) : 0.281
Time code of first frame : 00:00:00:00
Time code source : Group of pictures header
Stream size : 920 MiB (92%)
Audio
ID : 192 (0xC0)
Format : MPEG Audio
Format version : Version 1
Format profile : Layer 2
Duration : 44mn 11s
Bit rate mode : Constant
Bit rate : 192 Kbps
Channel(s) : 2 channels
Sampling rate : 48.0 KHz
Compression mode : Lossy
Stream size : 60.7 MiB (6%)

Скриншоты

[cybertorrent.ru].t2083.torrent 
Торрент: Зарегистрирован [ 2018-02-16 08:44 ] · 6040DB24905E42E3A5C7322D053AFACFD4C033A2

Скачать .torrent

Скачать

20 KB

Статус: проверено
Скачан: 0 раз
Размер: 1000 MB
Профиль [ЛС]
Показать сообщения:    

Текущее время: 26-Май 07:57

Часовой пояс: UTC ± 0



Вы не можете начинать темы
Вы не можете отвечать на сообщения
Вы не можете редактировать свои сообщения
Вы не можете удалять свои сообщения
Вы не можете голосовать в опросах
Вы не можете прикреплять файлы к сообщениям
Вы можете скачивать файлы