Статистика раздачи
Размер:  3,6 GB   |    Зарегистрирован:  3 месяца 10 дней   |    Скачан:  0 раз

Полного источника не было: Никогда

 
   
 
 

NINJA ®

Пол:
Не указан
Стаж:
3 месяца 11 дней
Сообщений:
264

Возрождение. Уроки Чернобыля
Год выпуска: 2016
Страна: Республика Беларусь
Жанр: Документальный
Продолжительность серии: ~00:25:00
Количество серий: 8
Перевод: Не требуется
Оригинальная аудиодорожка: русский
Телеканал: ТРК Гомель
Релиз:
Описание: К 30-летию трагических дней чернобыльской катастрофы телеканал "Беларусь 3" показал серию передач "Возрождение". Чернобыльская трагедия затронула всех белорусов.
Но жизнь продолжается! Как Беларусь борется с последствиями аварии на ЧАЭС?
В настоящий момент в Беларуси реализуется шестая программа по минимизации последствий аварии на ЧАЭС. Какие методы хозяйствования применяют хозяйства, оздоровления населения и природы, рекреации и даже туристические аспекты затронуты в цикле передач "Возрождение".
Доп. информация: Запись потока *.ts с наземного цифрового телеканала "Беларусь 3", ремукс в *.mkv программой VideoReDo.
Благодарность: за оказанную помощь с недостающим материалом Bartimeyse.
Мои раздачи:

Мои раздачи!!!

ВСЕ:
http://cybertorrent.ru/tracker.php?rid=9778909
http://BY.rutracker.org/forum/tracker.php?rid=9778909
http://UA.rutracker.org/forum/tracker.php?rid=9778909
Избранные:
1) Я - гражданин Республики Беларусь. Архитектурные и художественные шедевры Беларуси [2008, RUS]
http://cybertorrent.ru/viewtopic.php?t=3516744
2) Государственная политика [Документальный цикл, TVRip, 2010]
http://cybertorrent.ru/viewtopic.php?t=3321565
3) Беларусь. Взгляд извне [2005, документальный сериал, TVRip]
http://cybertorrent.ru/viewtopic.php?t=3543820
4) Трилогия: Белая Русь, Чарующая Беларусь, Путешествие из Беларуси в Россию [2010-2011 г., Документальный, DVD5]
http://cybertorrent.ru/viewtopic.php?t=3442053
5) Правда о западной «демократии» и белорусском «тоталитаризме» [Беларусь 2011, Документальное расследование]
http://cybertorrent.ru/viewtopic.php?t=3523672
6) Задорнов в Беларуси. Беларусь - это значительно улучшенный Советский Союз [2010-2011 г., Интервью, TVRip]
http://cybertorrent.ru/viewtopic.php?t=3512134
7) [Журнал] Экономика Беларуси (16 номеров) [2007-2010, PDF, RUS]
http://cybertorrent.ru/viewtopic.php?t=3309120
8) Армия - Журнал Вооруженных сил республики Беларусь. (81 номер) [1996-2010, PDF, RUS]
http://cybertorrent.ru/viewtopic.php?t=3277264
9) Страна Моя, Беларусь! Заставка телеканал СТВ Минск. Белоруссия, Мир, Несвиж и др. zweizwei [2010, рекламный ролик, заставка, HD-Video]
http://cybertorrent.ru/viewtopic.php?t=3480687
10) Радзивиллы Несвижские владения Костел Божьего тела [2011 г., хроникально-документальный, TVRip]
http://cybertorrent.ru/viewtopic.php?t=3410980
11) Полёты на воздушном шаре. Новогрудок. Беларусь. zweizwei / Belarus Novogrudok [2010, HD-Video]
http://cybertorrent.ru/viewtopic.php?t=3380821
12) Полёты на воздушном шаре / Беларусь, Белоруссия, Гродно, Святск. zweizwei [2009, HD-Video]
http://cybertorrent.ru/viewtopic.php?t=3380756
13) Вид Гродно с высоты полета (Беларусь)/Выгляд Гродна з вышыні палёту паветранага шара [222]
http://cybertorrent.ru/viewtopic.php?t=3369388
14) Анархия Прямое действие. Беларусь [2011, документальный фильм, TVRip]
http://cybertorrent.ru/viewtopic.php?t=3485756
15) Психология девиации (АТН, Беларусь ТВ) [2010, Информационно-аналитические и общественно-политическиепередачи, TVRip]
http://cybertorrent.ru/viewtopic.php?t=3542424
16) Боль моя - Чернобыль (Беларусь, Коллектив Беларусь ТВ) [2011, Документлный, TVRip]
http://cybertorrent.ru/viewtopic.php?t=3546253
17) Попов хутор и его обитатели Русс ТВ [2011, Документальный, DVD5]
http://cybertorrent.ru/viewtopic.php?t=3514286
и сотни других...
Качество видео: DVB-AVC
Формат видео: MKV
Видео: AVC (H264), 720x576 (4:3), 25 fps, 2 203 Kbps
Аудио: MP2, 256 kbps, 2 channels, 48 kHz
Источник: собственный рип
Сэмпл: http:// СПАМ

Список выпусков/серий

Возрождение_01_Эхо Чернобыля.mkv
Возрождение_02_Сохранить, возродить, приумножить....mkv
Возрождение_03_Зона отчуждения.mkv
Возрождение_04_Уроки Чернобыля.mkv
Возрождение_05_Помнить для того, чтобы жить.mkv
Возрождение_06_Дело государственной важности.mkv
Возрождение_07_Курс на возрождение.mkv
Возрождение_08_30 лет спустя. Итоги.mkv

MediaInfo

General
Unique ID : 98278921996508885138119188297640416167 (0x49EFD4F5ECCB71F82428F041454593A7)
Complete name : D:\Новая земля 2\00001\Возрождение. Уроки Чернобыля (2016)\Возрождение. Уроки Чернобыля (2016)\Возрождение_01_Эхо Чернобыля.mkv
Format : Matroska
Format version : Version 2
File size : 455 MiB
Duration : 25mn 20s
Overall bit rate : 2 509 Kbps
Writing application : Lavf52.64.2
Writing library : Lavf52.64.2
Video
ID : 1
Format : AVC
Format/Info : Advanced Video Codec
Format profile : Main@L3.0
Format settings, CABAC : Yes
Format settings, ReFrames : 4 frames
Codec ID : V_MPEG4/ISO/AVC
Duration : 25mn 20s
Bit rate : 2 203 Kbps
Width : 720 pixels
Height : 576 pixels
Display aspect ratio : 4:3
Original display aspect ratio : 4:3
Frame rate mode : Constant
Frame rate : 25.000 fps
Standard : PAL
Color space : YUV
Chroma subsampling : 4:2:0
Bit depth : 8 bits
Scan type : MBAFF
Scan order : Top Field First
Bits/(Pixel*Frame) : 0.212
Stream size : 399 MiB (88%)
Default : Yes
Forced : No
Color primaries : BT.601 PAL
Transfer characteristics : BT.470 System B, BT.470 System G
Matrix coefficients : BT.601
Color range : Limited
Audio
ID : 2
Format : MPEG Audio
Format version : Version 1
Format profile : Layer 2
Codec ID : A_MPEG/L2
Codec ID/Hint : MP2
Duration : 25mn 20s
Bit rate mode : Constant
Bit rate : 256 Kbps
Channel(s) : 2 channels
Sampling rate : 48.0 KHz
Compression mode : Lossy
Stream size : 46.4 MiB (10%)
Language : English
Default : Yes
Forced : No
[cybertorrent.ru].t2677.torrent 
Торрент: Зарегистрирован [ 2018-02-16 14:35 ] · 4A033E246347BBA48D46298FF717B6E13CC2AB3D

Скачать .torrent

Скачать

19 KB

Статус: проверено
Скачан: 0 раз
Размер: 3,6 GB
Профиль [ЛС]
Показать сообщения:    

Текущее время: 26-Май 17:43

Часовой пояс: UTC ± 0



Вы не можете начинать темы
Вы не можете отвечать на сообщения
Вы не можете редактировать свои сообщения
Вы не можете удалять свои сообщения
Вы не можете голосовать в опросах
Вы не можете прикреплять файлы к сообщениям
Вы можете скачивать файлы