Статистика раздачи
Размер:  949 MB   |    Зарегистрирован:  3 месяца 9 дней   |    Скачан:  0 раз

Полного источника не было: Никогда

 
   
 
 

plus ®

Пол:
Не указан
Стаж:
3 месяца 10 дней
Сообщений:
313

Искатели - "Покаяние атамана Анненкова".
Год выпуска: 2016
Страна: Россия
Жанр: Документальный
Продолжительность: 00:43:54
Перевод: Не требуется
Русские субтитры: телетекст

Описание

Цикл познавательно-приключенческих программ, посвященный общественно значимым событиям истории России и зарубежья, а также частным историям известных людей, которые оставили потомкам много вопросов и тайн. Жанр цикла – историческое расследование, "телевизионные приключения для взрослых". Чтобы разгадать очередную тайну, "Искатели" исследуют как летописные источники, так и находки, обнаруженные непосредственно на месте исторических событий.
В выпуске: В апреле 1926 года в советской и эмигрантской печати было опубликовано покаянное письмо белогвардейского атамана Бориса Анненкова, в котором он просил правительство СССР даровать ему прощение. Анненков обратился ко всем белогвардейцам с призывом последовать его примеру – прекратить антисоветскую деятельность, покаяться перед большевиками и вернуться на Родину! Однако летом следующего года в СССР состоялся процесс над Анненковым, в результате которого его приговорили к расстрелу. Почему советские власти не проявили гуманизм? И почему "самый жестокий белый атаман" внезапно решил покаяться в былых грехах? Неужели не понимал, что ждет его по возвращении? Зачем Анненков звал на верную смерть бывших соратников? Что это – глупость, предательство или что-то тре ...
Качество видео: DVB
Формат видео: MPEG-TS
Видео: MPEG4 Video (H264), 720x576@785x576 (4:3), анаморф, 25 fps, 2700 kbps
Аудио: MPEG Audio, 2 сh, 48 kHz, 192 kbps
Трансляция спутникового канала:

MediaInfo

D:\Искатели. Покаяние атамана Анненкова. (2016)_DVB by SLuMeP.ts
General #1
ID : 1 (0x1)
Complete name : D:\Искатели. Покаяние атамана Анненкова. (2016)_DVB by SLuMeP.ts
Format : MPEG-TS
File size : 949 MiB
Duration : 43mn 54s
Overall bit rate mode : Variable
Overall bit rate : 3 022 Kbps
Video #1061
ID : 1061 (0x425)
Menu ID : 1060 (0x424)
Format : AVC
Format/Info : Advanced Video Codec
Format profile : Main@L3.0
Format settings, CABAC : Yes
Format settings, ReFrames : 3 frames
Format settings, GOP : M=4, N=28
Codec ID : 27
Duration : 43mn 54s
Bit rate : 2 679 Kbps
Width : 720 pixels
Height : 576 pixels
Display aspect ratio : 4:3
Frame rate : 25.000 fps
Standard : Component
Color space : YUV
Chroma subsampling : 4:2:0
Bit depth : 8 bits
Scan type : Interlaced
Scan order : Top Field First
Bits/(Pixel*Frame) : 0.258
Stream size : 841 MiB (89%)
Color primaries : BT.601 PAL
Transfer characteristics : BT.470 System B, BT.470 System G
Matrix coefficients : BT.601
Audio #1062
ID : 1062 (0x426)
Menu ID : 1060 (0x424)
Format : MPEG Audio
Format version : Version 1
Format profile : Layer 2
Codec ID : 3
Duration : 43mn 54s
Bit rate mode : Constant
Bit rate : 192 Kbps
Channel(s) : 2 channels
Sampling rate : 48.0 KHz
Compression mode : Lossy
Delay relative to video : -40ms
Stream size : 60.3 MiB (6%)
Language : English
Text #1063-100
ID : 1063 (0x427)-100
Menu ID : 1060 (0x424)
Format : Teletext Subtitle
Language : Russian
Menu #1060
ID : 1060 (0x424)
Menu ID : 1060 (0x424)
Duration : 43mn 54s
List : 1061 (0x425) (AVC) / 1062 (0x426) (MPEG Audio, English) / 1063 (0x427) ()
Language : / English

Скриншоты

[cybertorrent.ru].t2678.torrent 
Торрент: Зарегистрирован [ 2018-02-16 14:35 ] · 0D29E861E3C65CC6E1151C7B0C446A1AEBCA369C

Скачать .torrent

Скачать

19 KB

Статус: проверено
Скачан: 0 раз
Размер: 949 MB
Профиль [ЛС]
Показать сообщения:    

Текущее время: 25-Май 20:11

Часовой пояс: UTC ± 0



Вы не можете начинать темы
Вы не можете отвечать на сообщения
Вы не можете редактировать свои сообщения
Вы не можете удалять свои сообщения
Вы не можете голосовать в опросах
Вы не можете прикреплять файлы к сообщениям
Вы можете скачивать файлы