Статистика раздачи
Размер:  6,17 GB   |    Зарегистрирован:  2 дня 20 часов   |    Скачан:  0 раз

Полного источника не было: Никогда

 
   
 
 

Alino4ka ®

Пол:
Не указан
Стаж:
4 дня
Сообщений:
57

Мифы Древней Греции / Les Grands Mythes / The Great Greek Myths- Дата/Год выпуска: 2016
Страна: Франция
Жанр: Документальный
Продолжительность: ~ 00:26:00
Перевод: Студийный (одноголосый закадровый) СВ-Дубль-Режиссер: Сильвен Бержер / Sylvain Bergère-Телеканал: Культура-Описание: Мифы и легенды Древней Греции – величайшее культурное наследие человечества, интерес к которым не ослабевает в современном мире. Греческая мифология складывалась веками, передаваясь из уст в уста, из поколения в поколение и оказала серьезное влияние на развитие культуры и искусства всего мира, положила начало бесчисленному количеству религиозных представлений о человеке, богах и героях. Она дошла до нас в поэзии Гесиода и Гомера, а также в произведениях греческих драматургов Эсхила, Софокла, Еврипида и других. В древних преданиях отражено представление древних греков об устройстве мира и всех процессах, происходящих в природе и обществе, их миропонимание и мировоззрение.-Релиз от: Gratian (Kinozal)-Сэмпл-Ссылка на предыдущие и альтернативные раздачи-качество: HDTVRip
формат: AVI
Видео: XviD, 720x400 (16:9), 25.000 fps, 1 300 Kbps (0.181 bit/pixel)
Аудио#1: AC-3, 48.0 KHz, 2 ch, 192 Kbps, CBR - русский
Аудио#2: AC-3, 48.0 KHz, 2 ch, 192 Kbps, CBR - французский

Список выпусков/серий

01. Зевс. Завоевание власти
02. Зевс. Любвеобильный бог
03. Прометей. Мятежник на Олимпе
04. Аид. Царь поневоле
05. Афина. Мудрая воительница
06. Аполлон. Свет и тьма
07. Афродита. Повелительница любовных желаний
08. Дионис. Чужой в родном городе
09. Гермес. Непредсказуемый вестник богов
10. Психея. Красавица и чудовище
11. Орфей. Невозможная любовь
12. Беллерофонт. Человек, который хотел быть равным богам
13. Персей. Смертельный взгляд Медузы
14. Дедал и Икар. Рухнувшая мечта
15. Тесей, или Разрушительная сила безрассудства
16. Медея. Любовь, несущая смерть
17. Геракл. Человек, который стал Богом
18. Эдип. Тот, что пытался постичь тайну
19. Антигона. Та, что сказала "нет"
20. Тартар. Проклятые богами

MediaInfo

Общее
Полное имя : D:\Раздачи\Мифы Древней Греции.2016.HDTVRip\01.Зевс. Завоевание власти.avi
Формат : AVI
Формат/Информация : Audio Video Interleave
Размер файла : 319 Мбайт
Продолжительность : 26 м.
Общий поток : 1698 Кбит/сек
Программа кодирования : VirtualDubMod 1.5.10.2 (build 2540/release)
Библиотека кодирования : VirtualDubMod build 2540/release
Видео
Идентификатор : 0
Формат : xvid
Идентификатор кодека : xvid
Продолжительность : 26 м.
Битрейт : 1300 Кбит/сек
Ширина : 720 пикселей
Высота : 400 пикселей
Соотношение сторон : 16:9
Частота кадров : 25,000 кадров/сек
Бит/(Пиксели*Кадры) : 0.181
Размер потока : 244 Мбайт (77%)
Аудио #1
Идентификатор : 1
Формат : AC-3
Формат/Информация : Audio Coding 3
Расширение режима : CM (complete main)
Параметр Endianness формата : Big
Идентификатор кодека : 2000
Продолжительность : 26 м.
Вид битрейта : Постоянный
Битрейт : 192 Кбит/сек
Каналы : 2 канала
Расположение каналов : Front: L R
Частота : 48,0 КГц
Частота кадров : 31,250 кадров/сек (1536 spf)
Метод сжатия : С потерями
Размер потока : 35,9 Мбайт (11%)
Выравнивание : Разделение по промежуткам
Продолжительность промежутка : 40 мс. (1,00 видеокадр)
Время предзагрузки промежутка : 500 мс.
Аудио #2
Идентификатор : 2
Формат : AC-3
Формат/Информация : Audio Coding 3
Расширение режима : CM (complete main)
Параметр Endianness формата : Big
Идентификатор кодека : 2000
Продолжительность : 26 м.
Вид битрейта : Постоянный
Битрейт : 192 Кбит/сек
Каналы : 2 канала
Расположение каналов : Front: L R
Частота : 48,0 КГц
Частота кадров : 31,250 кадров/сек (1536 spf)
Метод сжатия : С потерями
Размер потока : 36,0 Мбайт (11%)
Выравнивание : Разделение по промежуткам
Продолжительность промежутка : 40 мс. (1,00 видеокадр)
Время предзагрузки промежутка : 500 мс.

Скриншоты

[cybertorrent.ru].t3262.torrent 
Торрент: Зарегистрирован [ 2018-02-16 17:30 ] · 706D870A681532FCD8B60EBB68C381E6B10E4A46

Скачать .torrent

Скачать

33 KB

Статус: проверено
Скачан: 0 раз
Размер: 6,17 GB
terms.php
Профиль [ЛС]
Показать сообщения:    

Текущее время: 19-Фев 13:56

Часовой пояс: UTC ± 0



Вы не можете начинать темы
Вы не можете отвечать на сообщения
Вы не можете редактировать свои сообщения
Вы не можете удалять свои сообщения
Вы не можете голосовать в опросах
Вы не можете прикреплять файлы к сообщениям
Вы можете скачивать файлы