Статистика раздачи
Размер:  2,98 GB   |    Зарегистрирован:  2 дня 12 часов   |    Скачан:  0 раз

Полного источника не было: Никогда

Личеров:  1  [  0 KB/s  ]   Подробная статистика пиров
 
   
 
 

DR_KTO ®

Пол:
Не указан
Стаж:
3 дня
Сообщений:
128

Замки и дворцы Европы (1-5 серии из 5) / Castles and Palaces of Europe
Дата/Год выпуска: 2013
Страна: Германия
Жанр: документальный, история, архитектура, искусство
Продолжительность: 5 серий по ~ 52 мин
Перевод: Профессиональный (двухголосый закадровый)
Доп. инфо о переводе: Компания «Игмар»
Русские субтитры: нет
Режиссер: Джереми Фекете и Геро фон Бём /Jeremy JP Fekete & Gero von Boehm
Телеканал: 365 дней ТВ
Описание: Документальный сериал о красивейших замках Европы, владельцы которых были королями или могли сравниться с любым монархом своим богатством и образованностью.
Ни в одной другой части мира не сосредоточено такое количество замков, как в Европе. Телезрителю предлагается путешествие по замкам и дворцам долины реки Луара во Франции, юга Германии, юга-востока Англии, итальянского Пьемонта и побережья Португалии.
Сэмпл: http://multi-up.com/1156496
качество: DVBRip
формат: AVI
Видео: Xvid 704x416 25fps 1499kbps
Аудио: MP3 48000Hz stereo 128kbps

Список выпусков/серий

1. Долина Луары во Франции / Loire Valley in France
2. Баден – Вюртемберг в Германии / Baden – Württemberg in Germany
3. Южная Англия / Southern England
4. Пьемонт в Италии / Piedmont in Italy
5. Эштремадура в Португалии / Estremadura in Portugal

MediaInfo

General
Complete name : F:\Замки и дворцы Европы\3. Южная Англия .avi
Format : AVI
Format/Info : Audio Video Interleave
File size : 610 MiB
Duration : 51mn 57s
Overall bit rate : 1 641 Kbps
Video
ID : 0
Format : MPEG-4 Visual
Format profile : Advanced Simple@L5
Format settings, BVOP : 2
Format settings, QPel : No
Format settings, GMC : No warppoints
Format settings, Matrix : Default (H.263)
Codec ID : XVID
Codec ID/Hint : XviD
Duration : 51mn 57s
Bit rate : 1 500 Kbps
Width : 704 pixels
Height : 416 pixels
Display aspect ratio : 1.692
Frame rate : 25.000 fps
Color space : YUV
Chroma subsampling : 4:2:0
Bit depth : 8 bits
Scan type : Progressive
Compression mode : Lossy
Bits/(Pixel*Frame) : 0.205
Stream size : 557 MiB (91%)
Writing library : XviD 64
Audio
ID : 1
Format : MPEG Audio
Format version : Version 1
Format profile : Layer 3
Codec ID : 55
Codec ID/Hint : MP3
Duration : 51mn 57s
Source duration : 51mn 57s
Bit rate mode : Constant
Bit rate : 128 Kbps
Channel(s) : 2 channels
Sampling rate : 48.0 KHz
Compression mode : Lossy
Stream size : 47.6 MiB (8%)
Alignment : Split accross interleaves
Interleave, duration : 24 ms (0.60 video frame)
Мои раздачи:архитектура, искусство, недвижимость http://rutracker.org/forum/tracker.php?rid=8171303
[cybertorrent.ru].t3301.torrent 
Торрент: Зарегистрирован [ 2018-02-16 17:30 ] · 2B6CB01BCEFCA8009E790C502A087559E00F7C6F

Скачать .torrent

Скачать

16 KB

Статус: проверено
Скачан: 0 раз
Размер: 2,98 GB
terms.php
Профиль [ЛС]
Показать сообщения:    

Текущее время: 19-Фев 05:49

Часовой пояс: UTC ± 0



Вы не можете начинать темы
Вы не можете отвечать на сообщения
Вы не можете редактировать свои сообщения
Вы не можете удалять свои сообщения
Вы не можете голосовать в опросах
Вы не можете прикреплять файлы к сообщениям
Вы можете скачивать файлы