Статистика раздачи
Размер:  782 MB   |    Зарегистрирован:  6 месяцев 1 день   |    Скачан:  0 раз

Полного источника не было: Никогда

 
   
 
 

Volga ®

Пол:
Не указан
Стаж:
6 месяцев 3 дня
Сообщений:
92

Миньоны против газона
Mower Minions
Год выпуска: 2016
Страна: США
Жанр: мультфильм, короткометражка, мюзикл, комедия, семейный
Продолжительность: 00:04:12
Перевод: Любительский (Двухголосый закадровый) - Shadow Dub Project
русские субтитры: есть-Режиссёр: Бруно Шоффард : Bruno Chauffard, Гленн МакКой : Glenn McCoy
Роли озвучивали: Пьер Коффан, Джоди Гелб, Дэйв Розенбаум-Описание: Миньоны хотят купить блендер, чтобы делать банановый сок. В копилке денег на покупку не хватает, и они решают заработать недостающую сумму…- релиз: -Работа со звуком, спасибо *Sergeant_am*
Работа с Remux'ом -Azureus--Качество: BDRemux 1080p |Исходник: Blu-ray disc|
Формат: MKV
Видео кодек: AVC
Аудио кодек: AC3, E-AC3
Видео: 1920x1080, 23,976 fps, ~24,4 Мbps avg, 0.491 bit/pixel
Аудио #1: [RUS] 48 kHz, AC3 Dolby Digital, 2/0 (L,R) ch, ~192 kbps avg
Аудио #2: [UKR] 48 kHz, AC3 Dolby Digital, 3/2 (L,C,R,l,r) + LFE ch, ~640 kbps avg
Аудио #3: [ENG] E-AC3, English, 7.1 channels, 768kbps, 48kHz, dialnorm: -27dB (core: AC3, 5.1 channels, 448kbps, 48kHz, dialnorm: -27dB)
субтитры: русские, украинские, английские

MediaInfo

Общее
Уникальный идентификатор : 229468228275147157019391454549186288865 (0xACA1F9246CEE35E192C8E59F45819CE1)
Полное имя : D:\Mult\Mower Minions\Mower Minions.2016.BDRemux 1080p.mkv
Формат : Matroska
Версия формата : Version 4 / Version 2
Размер файла : 782 Мбайт
Продолжительность : 4 м. 12 с.
Режим общего битрейта : Переменный
Общий поток : 26,0 Мбит/сек
Название фильма : Mower Minions.2016.BDRemux 1080p -Azureus-
Дата кодирования : UTC 2017-11-05 21:21:42
Программа кодирования : mkvmerge v13.0.0 ('The Juggler') 64bit
Библиотека кодирования : libebml v1.3.4 + libmatroska v1.4.5
Видео
Идентификатор : 1
Формат : AVC
Формат/Информация : Advanced Video Codec
Профиль формата : High@L4.1
Настройки формата : CABAC / 4 Ref Frames
Параметр CABAC формата : Да
Параметр RefFrames формата : 4 кадра
Идентификатор кодека : V_MPEG4/ISO/AVC
Продолжительность : 4 м. 12 с.
Вид битрейта : Переменный
Битрейт : 24,4 Мбит/сек
Максимальный битрейт : 29,0 Мбит/сек
Ширина : 1920 пикселей
Высота : 1080 пикселей
Соотношение сторон : 16:9
Режим частоты кадров : Постоянный
Частота кадров : 23,976 (24000/1001) кадра/сек
Цветовое пространство : YUV
Субдискретизация насыщенности : 4:2:0
Битовая глубина : 8 бит
Тип развёртки : Прогрессивная
Бит/(Пиксели*Кадры) : 0.491
Размер потока : 734 Мбайт (94%)
Язык : English
Default : Да
Forced : Нет
Аудио #1
Идентификатор : 2
Формат : AC-3
Формат/Информация : Audio Coding 3
Параметр Endianness формата : Big
Идентификатор кодека : A_AC3
Продолжительность : 4 м. 12 с.
Вид битрейта : Постоянный
Битрейт : 192 Кбит/сек
Каналы : 2 канала
Расположение каналов : Front: L R
Частота : 48,0 КГц
Частота кадров : 31,250 кадров/сек (1536 SPF)
Битовая глубина : 16 бит
Метод сжатия : С потерями
Размер потока : 5,77 Мбайт (1%)
Заголовок : DVO
Язык : Russian
ServiceKind/String : Complete Main
Default : Да
Forced : Нет
Аудио #2
Идентификатор : 3
Формат : AC-3
Формат/Информация : Audio Coding 3
Параметр Endianness формата : Big
Идентификатор кодека : A_AC3
Продолжительность : 4 м. 12 с.
Вид битрейта : Постоянный
Битрейт : 640 Кбит/сек
Каналы : 6 каналов
Расположение каналов : Front: L C R, Side: L R, LFE
Частота : 48,0 КГц
Частота кадров : 31,250 кадров/сек (1536 SPF)
Битовая глубина : 16 бит
Метод сжатия : С потерями
Размер потока : 19,2 Мбайт (2%)
Заголовок : UKR
Язык : Ukrainian
ServiceKind/String : Complete Main
Default : Нет
Forced : Нет
Аудио #3
Идентификатор : 4
Формат : E-AC-3
Формат/Информация : Enhanced Audio Coding 3
Параметр Endianness формата : Big
Идентификатор кодека : A_EAC3
Продолжительность : 4 м. 12 с.
Вид битрейта : Постоянный
Битрейт : 500 бит/сек
Каналы : 6 каналов
Расположение каналов : Front: L C R, Side: L R, LFE
Частота : 48,0 КГц
Частота кадров : 187,500 кадров/сек (256 SPF)
Метод сжатия : С потерями
Размер потока : 23,1 Мбайт (3%)
Язык : English
ServiceKind/String : Complete Main
Default : Нет
Forced : Нет
Текст #1
Идентификатор : 5
Формат : UTF-8
Идентификатор кодека : S_TEXT/UTF8
Идентификатор кодека/Информация : UTF-8 Plain Text
Продолжительность : 4 м. 1 с.
Битрейт : 40 бит/сек
ElementCount : 36
Размер потока : 1,19 Кбайт (0%)
Заголовок : Rus Sub
Язык : Russian
Default : Нет
Forced : Нет
Текст #2
Идентификатор : 6
Формат : UTF-8
Идентификатор кодека : S_TEXT/UTF8
Идентификатор кодека/Информация : UTF-8 Plain Text
Продолжительность : 4 м. 0 с.
Битрейт : 13 бит/сек
ElementCount : 13
Размер потока : 412 байт (0%)
Заголовок : Ukr Sub
Язык : Ukrainian
Default : Нет
Forced : Нет
Текст #3
Идентификатор : 7
Формат : UTF-8
Идентификатор кодека : S_TEXT/UTF8
Идентификатор кодека/Информация : UTF-8 Plain Text
Продолжительность : 3 м. 59 с.
Битрейт : 61 бит/сек
ElementCount : 96
Размер потока : 1,80 Кбайт (0%)
Заголовок : Eng Sub
Язык : English
Default : Нет
Forced : Нет
[cybertorrent.ru].t3623.torrent 
Торрент: Зарегистрирован [ 2018-02-16 23:01 ] · FE89FD095AB6C8F96FDBA8A4CEB13AFA6602B41E

Скачать .torrent

Скачать

16 KB

Статус: проверено
Скачан: 0 раз
Размер: 782 MB
Профиль [ЛС]
Показать сообщения:    

Текущее время: 18-Авг 22:00

Часовой пояс: UTC ± 0



Вы не можете начинать темы
Вы не можете отвечать на сообщения
Вы не можете редактировать свои сообщения
Вы не можете удалять свои сообщения
Вы не можете голосовать в опросах
Вы не можете прикреплять файлы к сообщениям
Вы можете скачивать файлы
Torrents24.ru открытый BitTorrent Torrents24.pl открытый BitTorrent CyberTorrent.ru открытый BitTorrent BtList.ru рейтинг BitTorrent трекеров Яндекс.Метрика