Статистика раздачи
Размер:  3,37 GB   |    Зарегистрирован:  3 месяца 9 дней   |    Скачан:  0 раз

Полного источника не было: Никогда

 
   
 
 

craft ®

Пол:
Не указан
Стаж:
3 месяца 10 дней
Сообщений:
432

Матильда
Страна: Россия
Студия: ТПО Рок
Жанр: драма, история, триллер
Год выпуска: 2017
Продолжительность: 01:48:37
Перевод: Не требуется
Субтитры: нет
Оригинальная аудиодорожка: русский
Режиссер: Алексей Учитель
В ролях: Михалина Ольшанска, Ларс Айдингер, Данила Козловский, Луиза Вольфрам, Ингеборга Дапкунайте, Сергей Гармаш, Евгений Миронов, Григорий Добрыгин, Галина Тюнина, Виталий Коваленко, Виталий Кищенко, Томас Остермайер, Сара Штерн, Гэ Ян, Сергей Малюгов, Степан Пивкин, Константин Желдин, Роман Шаляпин

Описание: Последний русский император и балерина, утвердившая славу русского балета. Страсть, которая могла изменить русскую историю. Любовь, ставшая легендой. В жизни каждого человека случаются несколько дней, которые могут изменить её навсегда. Когда происходит самое главное. Ты оборачиваешься на голос любви. И делаешь выбор. Но если властитель империи полюбит танцовщицу, сводящую с ума своей красотой… Успенский собор, Кремль, Ходынское поле, царские дворцы, сцены Мариинского и Большого театров — там, где бьется сердце вечной России.

Sample
Тип релиза: WEB-DL 720p
Контейнер: MKV
Видео: MPEG4 AVC Video, H264, 1280x532, 23.976 fps, 3964 kbps
Аудио: Russian (AC3, 6 ch, 384 kbps, 16 bits, 48.0 KHz) - оригинал

MediaInfo

General
Unique ID : 204421019080511004994154284848365936137 (0x99CA0E62876340529FAE7FD998DB9E09)
Complete name : D:\Матильда 2017 WEB-DL 720p.mkv
Format : Matroska
Format version : Version 2
File size : 3.37 GiB
Duration : 1h 48mn
Overall bit rate : 4 436 Kbps
Encoded date : UTC 2017-12-03 19:27:18
Writing application : mkvmerge v8.3.0 ('Over the Horizon') 64bit
Writing library : libebml v1.3.1 + libmatroska v1.4.2
DURATION : 01:48:37.920000000
NUMBER_OF_FRAMES : 203685
NUMBER_OF_BYTES : 312860160
_STATISTICS_WRITING_APP : mkvmerge v8.3.0 ('Over the Horizon') 64bit
_STATISTICS_WRITING_DATE_UTC : 2017-12-03 19:27:18
_STATISTICS_TAGS : BPS DURATION NUMBER_OF_FRAMES NUMBER_OF_BYTES
Video
ID : 1
Format : AVC
Format/Info : Advanced Video Codec
Format profile : Main@L3.1
Format settings, CABAC : No
Format settings, ReFrames : 2 frames
Codec ID : V_MPEG4/ISO/AVC
Duration : 1h 48mn
Bit rate : 3 964 Kbps
Width : 1 280 pixels
Height : 532 pixels
Display aspect ratio : 2.40:1
Frame rate mode : Constant
Frame rate : 23.976 fps
Color space : YUV
Chroma subsampling : 4:2:0
Bit depth : 8 bits
Scan type : Progressive
Bits/(Pixel*Frame) : 0.243
Stream size : 3.01 GiB (89%)
Language : English
Default : Yes
Forced : No
Color primaries : BT.709
Transfer characteristics : BT.709
Matrix coefficients : BT.709
Audio
ID : 2
Format : AC-3
Format/Info : Audio Coding 3
Mode extension : CM (complete main)
Format settings, Endianness : Big
Codec ID : A_AC3
Duration : 1h 48mn
Bit rate mode : Constant
Bit rate : 384 Kbps
Channel count : 6 channels
Channel positions : Front: L C R, Side: L R, LFE
Sampling rate : 48.0 KHz
Bit depth : 16 bits
Compression mode : Lossy
Stream size : 298 MiB (9%)
Language : Russian
Default : Yes
Forced : No
Menu
00:00:00.000 : en:1
00:07:12.000 : en:2
00:16:56.000 : en:3
00:25:53.000 : en:4
00:33:09.000 : en:5
00:43:26.000 : en:6
00:57:30.000 : en:7
01:09:56.000 : en:8
01:21:48.000 : en:9
01:29:54.000 : en:10
01:41:09.000 : en:11

Скриншоты


[cybertorrent.ru].t3882.torrent 
Торрент: Зарегистрирован [ 2018-02-16 23:01 ] · 5DCE1789F20339FA450CC0A315326667927B131A

Скачать .torrent

Скачать

17 KB

Статус: проверено
Скачан: 0 раз
Размер: 3,37 GB
Профиль [ЛС]
Показать сообщения:    

Текущее время: 26-Май 07:57

Часовой пояс: UTC ± 0



Вы не можете начинать темы
Вы не можете отвечать на сообщения
Вы не можете редактировать свои сообщения
Вы не можете удалять свои сообщения
Вы не можете голосовать в опросах
Вы не можете прикреплять файлы к сообщениям
Вы можете скачивать файлы