Статистика раздачи
Размер:  1,67 GB   |    Зарегистрирован:  4 дня   |    Скачан:  0 раз

Полного источника не было: Никогда

Личеров:  1  [  0 KB/s  ]   Подробная статистика пиров
 
   
 
 

genjabtr ®

Пол:
Не указан
Стаж:
6 дней
Сообщений:
76

Слон в комнате
The Elephant in the Room- Название театра: Cirque Le Roux
Страна: Франция
Жанр: комедия
Год выпуска: 2017
Продолжительность: 01:12:19
Перевод: Субтитры (русский перевод ECLAIR)
Субтитры: русские, английские, французские, немецкие, нидерландские
Оригинальная аудиодорожка: английский
Режиссёр: Роберто Мария Грасси / Roberto Maria Grassi
Режиссёр-постановщик: Шарлотта Салью / Charlotte Saliou
В ролях: Лолита Косте / Lolita Costet (Miss Betty), Янник Тома / Yannick Thomas (John Barick), Филипп Розенберг / Philip Rosenberg (Mr. Chance), Грегори Арсенал / Gregory Arsenal (Bouchon)
Описание: "Слон в комнате" - английская идиома, которая выражает очевидную правду, которую игнорируют либо старательно пытаются не замечать. Осень 1937 года. В ночь своей свадьбы мисс Бетти запирается в своей комнате. К ней присоединяются трое мужчин, ее муж, любовник и дворецкий, и атмосфера, кажется, накаляется. Какую тайну они пытаются скрыть?
Доп. информация: Hot Bird (13.0°E) TV5MONDE Europe DVB-S. Съемки спектакля, состоявшегося 28.09.2016 г. в Théâtre Bobino (Paris).
Качество видео: DVB
Формат видео: MKV
Видео: MPEG Video 2, 720x576@1024x576 (16:9), 25 fps, ~3040 kbps avg, 0.293 bit/pixel
Аудио: MPEG Audio 2, 2 ch, 48 kHz, 192 kbps - английский
Формат субтитров: отключаемые (SRT)

Пример субтитров

1
00:01:49,098 --> 00:01:51,473
ЦИРК "ЛЕРУ"
2
00:01:52,786 --> 00:01:55,536
СЛОН В КОМНАТЕ
3
00:03:22,292 --> 00:03:26,042
Смешон?
Это я смешон?
4
00:03:26,142 --> 00:03:27,454
Как вы смеете!
5
00:03:27,454 --> 00:03:31,149
Ты сказал, что я смешон!
6
00:03:31,149 --> 00:03:34,429
Я скажу тебе,
кто смешон на самом деле!
7
00:03:34,429 --> 00:03:37,834
Как ты смеешь говорить мне это!
8
00:03:37,834 --> 00:03:39,830
Сам ты смешон!
9
00:03:39,830 --> 00:03:41,705
Думаешь, я наивный?
10
00:03:41,705 --> 00:03:44,031
Я не простофиля,
11
00:03:44,031 --> 00:03:46,531
уверяю тебя!
12
00:03:48,828 --> 00:03:51,868
Ты знаешь, кто я?
Какой я человек?
13
00:03:51,868 --> 00:03:54,149
Я люблю все шикарное -
14
00:03:54,149 --> 00:03:56,751
сигары, шампанское, женщин.
15
00:03:56,751 --> 00:04:00,110
Я ничего не имею против тебя.
Ты вроде хороший парень.
16
00:04:00,110 --> 00:04:03,610
Отонька не найдется?
17
00:04:40,385 --> 00:04:41,885
Нет.
18
00:04:42,836 --> 00:04:44,336
Нет!
19
00:04:56,916 --> 00:05:00,166
Бетти, любовь моя!
20
00:05:01,346 --> 00:05:02,349
Бушон,

MediaInfo

General
Unique ID : 34736756602450447754560354947033638700 (0x1A220E54202863CA91D88F114DFAA72C)
Complete name : [apreder]The_Elephant_in_the_Room(2017)DVB.mkv
Format : Matroska
Format version : Version 2
File size : 1.67 GiB
Duration : 1 h 12 min
Overall bit rate mode : Variable
Overall bit rate : 3 298 kb/s
Movie name : The Elephant in the Room
Released date : 2017-00-00
Encoded date : UTC 2018-01-02 17:58:02
Writing application : mkvmerge v19.0.0 ('Brave Captain') 64-bit
Writing library : libebml v1.3.5 + libmatroska v1.4.8
Cover : Yes
Attachments : cover.jpg / small_cover.jpg
ACTOR : Lolita Costet, Yannick Thomas, Philip Rosenberg, Gregory Arsenal
DIRECTOR : Roberto Maria Grassi, Charlotte Saliou
GENRE : Comedy
KEYWORDS : rutracker.org
LAW_RATING : 16+
Video
ID : 1
Format : MPEG Video
Format version : Version 2
Format profile : Main@Main
Format settings : CustomMatrix / BVOP
Format settings, BVOP : Yes
Format settings, Matrix : Custom
Format settings, GOP : M=4, N=12
Format settings, picture structure : Frame
Codec ID : V_MPEG2
Codec ID/Info : MPEG 1 or 2 Video
Duration : 1 h 12 min
Bit rate mode : Variable
Bit rate : 3 040 kb/s
Maximum bit rate : 15.0 Mb/s
Width : 720 pixels
Height : 576 pixels
Display aspect ratio : 16:9
Active Format Description : Letterbox 16:9 image
Frame rate mode : Constant
Frame rate : 25.000 FPS
Standard : PAL
Color space : YUV
Chroma subsampling : 4:2:0
Bit depth : 8 bits
Scan type : Interlaced
Scan order : Top Field First
Compression mode : Lossy
Bits/(Pixel*Frame) : 0.293
Stream size : 1.54 GiB (92%)
Default : Yes
Forced : No
Audio
ID : 2
Format : MPEG Audio
Format version : Version 1
Format profile : Layer 2
Format settings : Joint stereo / Intensity Stereo + MS Stereo
Codec ID : A_MPEG/L2
Codec ID/Hint : MP2
Duration : 1 h 12 min
Bit rate mode : Constant
Bit rate : 192 kb/s
Channel(s) : 2 channels
Sampling rate : 48.0 kHz
Compression mode : Lossy
Stream size : 99.3 MiB (6%)
Language : English
Default : Yes
Forced : No
Text #1
ID : 3
Format : UTF-8
Codec ID : S_TEXT/UTF8
Codec ID/Info : UTF-8 Plain Text
Language : Russian
Default : No
Forced : No
Text #2
ID : 4
Format : UTF-8
Codec ID : S_TEXT/UTF8
Codec ID/Info : UTF-8 Plain Text
Language : English
Default : No
Forced : No
Text #3
ID : 5
Format : UTF-8
Codec ID : S_TEXT/UTF8
Codec ID/Info : UTF-8 Plain Text
Language : French
Default : No
Forced : No
Text #4
ID : 6
Format : UTF-8
Codec ID : S_TEXT/UTF8
Codec ID/Info : UTF-8 Plain Text
Language : German
Default : No
Forced : No
Text #5
ID : 7
Format : UTF-8
Codec ID : S_TEXT/UTF8
Codec ID/Info : UTF-8 Plain Text
Language : Dutch
Default : No
Forced : No

Скриншот с названием постановки

Скриншоты


Резервные скриншоты


- [4'014]
[cybertorrent.ru].t4249.torrent 
Торрент: Зарегистрирован [ 2018-02-17 01:52 ] · B0809AA2F8B4DB6F3648E0A4066AA310104C5232

Скачать .torrent

Скачать

17 KB

Статус: проверено
Скачан: 0 раз
Размер: 1,67 GB
terms.php
Профиль [ЛС]
Показать сообщения:    

Текущее время: 21-Фев 16:39

Часовой пояс: UTC ± 0



Вы не можете начинать темы
Вы не можете отвечать на сообщения
Вы не можете редактировать свои сообщения
Вы не можете удалять свои сообщения
Вы не можете голосовать в опросах
Вы не можете прикреплять файлы к сообщениям
Вы можете скачивать файлы