Статистика раздачи
Размер:  1,37 GB   |    Зарегистрирован:  2 дня   |    Скачан:  0 раз

Полного источника не было: Никогда

 
   
 
 

Симка ®

Пол:
Не указан
Стаж:
3 дня
Сообщений:
66

Изумление / Astonishing / Jing xin dong po
Страна: Гонконг
Жанр: триллер
Год выпуска: 2004
Продолжительность: 01:27:57
Перевод: Одноголосый закадровый (Виктор Береговых)
Субтитры: нет
Режиссер: Герман Яу / Herman Yau
В ролях: Кристи Чун, Алекс Фон, Саммо Хунг, Саша Хоу, Уильям Со, Алекс Фон, Анджела Ау, Джейсон Чу, Лам Вай
Описание: У Мэнди (Кристи Чун) есть все – деньги, свобода и любовь, и все это ей обеспечивает ее муж Кенни (Алекс Фон), известный ученый, работающий в крупном исследовательском центре над каким-то секретным проектом. Но однажды жизнь Мэнди резко меняется – она просыпается и с удивлением обнаруживает, что она поменялась местами с Фионой (Саша Хоу), ассистенткой ее мужа, а та теперь живет в ее доме и зовет себя Мэнди. У Мэнди нет причин сомневаться в своем рассудке, но все, кто ее когда-либо знал, подтверждают одно – ее зовут Фиона и она никогда не была замужем за Кенни. (Акира)
Сэмпл: https://yadi.sk/i/DXp6LDw63RPCFk
Качество видео: DVDRip
Формат видео: AVI
Видео: 704x400 (16:9), 23.976 fps, 2027 kbps avg, 0.300 bit/pixel
Аудио: AC3, 48.0 KHz, 192 Kbps, 2 channels

MediaInfo

Format : AVI
Format/Info : Audio Video Interleave
File size : 1.37 GiB
Duration : 1h 27mn
Overall bit rate : 2 226 Kbps
Writing application : VirtualDubMod 1.5.4.1 (build 2178/release)
Writing library : VirtualDubMod build 2178/release
Video
ID : 0
Format : MPEG-4 Visual
Format profile : AdvancedSimple@L5
Format settings, BVOP : Yes
Format settings, QPel : No
Format settings, GMC : No warppoints
Format settings, Matrix : Custom
Codec ID : XVID
Codec ID/Hint : XviD
Duration : 1h 27mn
Bit rate : 2 027 Kbps
Width : 704 pixels
Height : 400 pixels
Display aspect ratio : 16:9
Frame rate : 23.976 fps
Resolution : 24 bits
Colorimetry : 4:2:0
Scan type : Progressive
Bits/(Pixel*Frame) : 0.300
Stream size : 1.25 GiB (91%)
Writing library : XviD 1.2.0.dev47 (UTC 2006-11-01)
Audio
ID : 1
Format : AC-3
Format/Info : Audio Coding 3
Codec ID : 2000
Duration : 1h 27mn
Bit rate mode : Constant
Bit rate : 192 Kbps
Channel(s) : 2 channels
Channel positions : L R
Sampling rate : 48.0 KHz
Stream size : 121 MiB (9%)
Alignment : Split accross interleaves
Interleave, duration : 96 ms (2.30 video frames)
Interleave, preload duration : 96 ms
Language : Russian

Скриншот c названием фильма

Скриншоты

[cybertorrent.ru].t4402.torrent 
Торрент: Зарегистрирован [ 2018-02-17 04:38 ] · D7AD4925E13C51C3C7EBC920106D0241759DB7E7

Скачать .torrent

Скачать

14 KB

Статус: проверено
Скачан: 0 раз
Размер: 1,37 GB
terms.php
Профиль [ЛС]
Показать сообщения:    

Текущее время: 19-Фев 05:25

Часовой пояс: UTC ± 0



Вы не можете начинать темы
Вы не можете отвечать на сообщения
Вы не можете редактировать свои сообщения
Вы не можете удалять свои сообщения
Вы не можете голосовать в опросах
Вы не можете прикреплять файлы к сообщениям
Вы можете скачивать файлы