Статистика раздачи
Размер:  1,45 GB   |    Зарегистрирован:  3 месяца 11 дней   |    Скачан:  0 раз

Полного источника не было: Никогда

 
   
 
 

lopster ®

Пол:
Не указан
Стаж:
3 месяца 11 дней
Сообщений:
612

Раскоп
Страна: Россия
Студия: Кинокомпания "Любители"
Жанр: драма, комедия
Год выпуска: 2015
Продолжительность: 01:23:21
Субтитры: нет-Режиссер: Сергей Дахин-В ролях: Кирилл Пирогов, Никита Тюнин, Олег Нирян, Екатерина Федулова, Игорь Цышкевич, Александр Петров, Владас Багдонас, Пётр Ступин, Александр Безсмертный, Ксения Богданова, Наталия Денисенко, Лера Лахина, Алёна Данилова, Марина Данилова, Ангелина Турская, Анжелина Харченко, Настя Якуш, Ирина Литвинчук, Александр Гребеник, Александр Волошин, Сергей Калиниченко, Виталий Деркач-Описание: Писатель-неудачник Паша и двое его школьных друзей — алкоголик-бизнесмен Самородов и примерный семьянин Скляренко, заскучав от повседневной суеты, жён и рутины, решают отправиться в отпуск навстречу приключениям. Волею судьбы сорокалетние мальчишки оказываются на археологическом раскопе. Получив возможность столкнуться со своим прошлым, Паша, освободившись от иллюзий, комплексов и страхов, наконец, обретает внутреннюю гармонию…-Тип релиза: WEB-DLRip
Контейнер: AVI
Видео: 704x288 (2.44:1), 24.000 fps, XviD build 73 ~2104 kbps avg, 0.43 bit/pixel
Аудио: 48 kHz, AC3 Dolby Digital, 3/2 (L,C,R,l,r) + LFE ch, ~384 kbps-Скачать сэмпл-

MediaInfo

Код:Format : AVI
Format/Info : Audio Video Interleave
File size : 1.45 GiB
Duration : 1 h 23 min
Overall bit rate : 2 498 kb/s
Writing application : VirtualDubMod 1.5.10.3 | www.virtualdub-fr.org || (build 2550/release)
Writing library : VirtualDubMod build 2550/release
Video
ID : 0
Format : MPEG-4 Visual
Format profile : Advanced Simple@L5
Format settings : BVOP1 / Custom Matrix
Format settings, BVOP : 1
Format settings, QPel : No
Format settings, GMC : No warppoints
Format settings, Matrix : Custom
Codec ID : XVID
Codec ID/Hint : XviD
Duration : 1 h 23 min
Bit rate : 2 105 kb/s
Width : 704 pixels
Height : 288 pixels
Display aspect ratio : 2.40:1
Frame rate : 24.000 FPS
Color space : YUV
Chroma subsampling : 4:2:0
Bit depth : 8 bits
Scan type : Progressive
Compression mode : Lossy
Bits/(Pixel*Frame) : 0.433
Stream size : 1.23 GiB (84%)
Writing library : XviD 73
Audio
ID : 1
Format : AC-3
Format/Info : Audio Coding 3
Format settings, Endianness : Big
Codec ID : 2000
Duration : 1 h 23 min
Bit rate mode : Constant
Bit rate : 384 kb/s
Channel(s) : 6 channels
Channel positions : Front: L C R, Side: L R, LFE
Sampling rate : 48.0 kHz
Frame rate : 31.250 FPS (1536 SPF)
Bit depth : 16 bits
Compression mode : Lossy
Stream size : 229 MiB (15%)
Alignment : Split accross interleaves
Interleave, duration : 42 ms (1.00 video frame)
Interleave, preload duratio : 500 ms
Service kind : Complete Main

Скриншоты

[cybertorrent.ru].t447.torrent 
Торрент: Зарегистрирован [ 2018-02-15 15:48 ] · 5982A0633FBF35CDD4DF5AC2F49373B0AA600E25

Скачать .torrent

Скачать

15 KB

Статус: проверено
Скачан: 0 раз
Размер: 1,45 GB
Профиль [ЛС]
Показать сообщения:    

Текущее время: 27-Май 05:30

Часовой пояс: UTC ± 0



Вы не можете начинать темы
Вы не можете отвечать на сообщения
Вы не можете редактировать свои сообщения
Вы не можете удалять свои сообщения
Вы не можете голосовать в опросах
Вы не можете прикреплять файлы к сообщениям
Вы можете скачивать файлы