Статистика раздачи
Размер:  2,27 GB   |    Зарегистрирован:  2 месяца 8 дней   |    Скачан:  0 раз
Сидов:  2  [  0 KB/s  ]   Личеров:  2  [  0 KB/s  ]  
 
   
 
 

Alino4ka ®

Пол:
Не указан
Стаж:
2 месяца 10 дней
Сообщений:
208

Сокровища забытых фараонов
L'Egypte, une passion française- Дата/Год выпуска: 2013
Страна: Франция
Жанр: документальный, история Древнего мира
Продолжительность: 01:40:47
Перевод: Профессиональный (двухголосый закадровый)
Доп. инфо о переводе: Студия "Акцент" по заказу Kino Polska
Русские субтитры: нет
Оригинальная аудиодорожка: английский
Режиссер: Фредерик Вильнер / Frédéric Wilner
Телеканал: Docubox
Описание: Откройте для себя три измерения египетской истории: Старое Королевство - золотой век фараоновской цивилизации, конец древнего Египта с местом Балата и прибытие арабских мусульман в Египет и основание города Каира в его нынешних контурах.
Доп. информация: Intelsat 15 (85.0°E) DVB-S
качество: DVB
формат: MKV
Видео: MPEG Video 2, 720x576 (16:9), 25 fps, ~2905 kbps avg, 0.280 bit/pixel
Аудио 1: MPEG Audio 2, 2 ch, 48 kHz, ~192.00 kbps avg - русский
Аудио 2: MPEG Audio 2, 2 ch, 48 kHz, ~192.00 kbps avg - английский

MediaInfo

General
Unique ID : 159097197440423067431667434469520978246 (0x77B101730E3F23BF30A6ABAE3EE23146)
Complete name : [apreder]L'Egypte_une_passion_francaise(2013)DVB.mkv
Format : Matroska
Format version : Version 2
File size : 2.27 GiB
Duration : 1 h 40 min
Overall bit rate mode : Variable
Overall bit rate : 3 226 kb/s
Movie name : L'Egypte, une passion francaise
Released date : 2013-00-00
Encoded date : UTC 2018-02-01 15:26:34
Writing application : mkvmerge v20.0.0 ('I Am The Sun') 64-bit
Writing library : libebml v1.3.5 + libmatroska v1.4.8
Cover : Yes
Attachments : cover.png / small_cover.png
DIRECTOR : Frederic Wilner
GENRE : Documentary
KEYWORDS : rutracker.org
LAW_RATING : 12+
Video
ID : 1
Format : MPEG Video
Format version : Version 2
Format profile : Main@Main
Format settings : CustomMatrix / BVOP
Format settings, BVOP : Yes
Format settings, Matrix : Custom
Format settings, GOP : M=4, N=12
Format settings, picture structure : Frame
Codec ID : V_MPEG2
Codec ID/Info : MPEG 1 or 2 Video
Duration : 1 h 40 min
Bit rate mode : Variable
Bit rate : 2 905 kb/s
Maximum bit rate : 10 000 kb/s
Width : 720 pixels
Height : 576 pixels
Display aspect ratio : 16:9
Frame rate mode : Constant
Frame rate : 25.000 FPS
Standard : PAL
Color space : YUV
Chroma subsampling : 4:2:0
Bit depth : 8 bits
Scan type : Interlaced
Scan order : Top Field First
Compression mode : Lossy
Bits/(Pixel*Frame) : 0.280
Time code of first frame : 00:00:00:00
Time code source : Group of pictures header
GOP, Open/Closed : Open
Stream size : 2.05 GiB (90%)
Default : Yes
Forced : No
Audio #1
ID : 2
Format : MPEG Audio
Format version : Version 1
Format profile : Layer 2
Codec ID : A_MPEG/L2
Codec ID/Hint : MP2
Duration : 1 h 40 min
Bit rate mode : Constant
Bit rate : 128 kb/s
Channel(s) : 2 channels
Sampling rate : 48.0 kHz
Compression mode : Lossy
Stream size : 92.3 MiB (4%)
Language : Russian
Default : Yes
Forced : No
Audio #2
ID : 3
Format : MPEG Audio
Format version : Version 1
Format profile : Layer 2
Codec ID : A_MPEG/L2
Codec ID/Hint : MP2
Duration : 1 h 40 min
Bit rate mode : Constant
Bit rate : 128 kb/s
Channel(s) : 2 channels
Sampling rate : 48.0 kHz
Compression mode : Lossy
Stream size : 92.3 MiB (4%)
Language : English
Default : No
Forced : No

Скриншоты


Резервные скриншоты


- [4'063]
[cybertorrent.ru].t4846.torrent 
Торрент: Зарегистрирован [ 2018-02-17 07:24 ] · 6C332A88A1DA214090792F694C09B804510EB9BB

Скачать .torrent

Скачать

23 KB

Статус: проверено
Скачан: 0 раз
Размер: 2,27 GB
Профиль [ЛС]
Показать сообщения:    

Текущее время: 25-Апр 21:49

Часовой пояс: UTC ± 0



Вы не можете начинать темы
Вы не можете отвечать на сообщения
Вы не можете редактировать свои сообщения
Вы не можете удалять свои сообщения
Вы не можете голосовать в опросах
Вы не можете прикреплять файлы к сообщениям
Вы можете скачивать файлы