Статистика раздачи
Размер:  25,34 GB   |    Зарегистрирован:  3 месяца 1 день   |    Скачан:  0 раз
Сидов:  1  [  0 KB/s  ]  
 
   
 
 

Slivka ®

Пол:
Не указан
Стаж:
3 месяца 4 дня
Сообщений:
201

CSI: Место преступления Нью-Йорк / CSI: NY Год выпуска: 2011 (8 сезон)
Страна: США, Канада
Слоган: «How long does it take to get hooked on the latest CSI: hit? About a New York minute.»-Жанр: боевик, триллер, драма, криминал, детектив
Продолжительность: ~00:44 мин.
Перевод:
1-4 эп.: любительский одноголосый закадровый [nikolas]
5-18 эп.: любительский двухголосый закадровый [nikolas и Vernita]-Режиссер: Роб Бэйли / Rob Bailey, Мэтт Эрл Бисли / Matt Earl Beesley, Стивен ДеПол / Steven DePaul
Сценарий: Энн Донахью / Ann Donahue, Тимоти Дж. Лиа / Timothy J. Lea, Венди Баттлс / Wendy Battles, Эндрю Липшиц / Andrew Lipsitz, Эли Талберт / Eli Talbert
Продюсер: Энн Донахью / Ann Donahue, Викки Уильямс / Vikki Williams, Дэвид Йоншайг / David Yoneshige, Венди Баттлс / Wendy Battles, Дэнни Кэннон / Danny Cannon
Оператор: Феликс Парнелл / Feliks Parnell, Маршалл Адамс / Marshall Adams, Крис Мэнли / Chris Manley, Дермотт Даунс / Dermott Downs, Фрэнк Байерс / Frank Byers
Композитор: Билл Браун / Bill Brown-В ролях: Гэри Синиз (Detective Mac Taylor), Кармине Джовинаццо (Detective Danny Messer), Хилл Харпер (Dr. Sheldon Hawkes), Эдди Кехилл (Detective Don Flack), Мелина Канакаредес (Detective Stella Bonasera), Анна Белкнап (Detective Lindsay Monroe), Роберт Джой (Dr. Sid Hammerback), А.Дж. Баккли (Adam Ross), Ванесса Ферлито (Detective Aiden Burn), Эммануэль Вожье (Detective Jessica Angell), Села Уорд (Jo Danville), Клэр Форлани (Dr. Peyton Driscoll)-Мировая премьера: 23 сентября 2011-Описание: Здесь, так же, как в «городе грехов» Лас-Вегасе и на райском побережье Майами, работает непревзойдённая команда детективов, вооружённых самыми последними разработками в области раскрытия преступлений.
Команду возглавляет детектив Мэк МакТейлор, преданный своему делу специалист, который убеждён, что в преступлениях всё взаимосвязано и, если потянуть за едва видимую нить, можно распутать даже самый сложный клубок событий. Его напарник, детектив Стелла Бонасейра - настоящий фанат своего дела и мастер на все руки. Мэк и Стелла вместе с другими членами команды CSI ведут отчаянную борьбу против преступности в каменных джунглях Нью-Йорка.-
Коллеги, друзья и конкуренты
Cъемpl-Качество: WEB-DL 720p
Формат: MKV

Видео: AVC; 1280x720 (16:9); 4122 Kbps; 23,976 fps; 0,187 bpp
Аудио №1: Russian; AC3; 192 Kbps; CBR; 2 ch
Аудио №2: English; AC3; 384 Kbps; CBR; 6 ch-

MI

Общее
Уникальный идентификатор : 239460816360024378755236954828543845615 (0xB42679C5BD5D0954A9263BABFB5764EF)
Полное имя :...Season 8\CSI_NY.S08.720p.WEB-DL.Nicolas\CSI_NY.S08E01.720p.WEB-DL.Nicolas.mkv
Формат : Matroska
Версия формата : Version 2
Размер файла : 1,49 Гбайт
Продолжительность : 44 м.
Общий поток : 4793 Кбит/сек
Название фильма : CSI: NY S08E01 'Indelible'
Дата кодирования : UTC 2011-10-02 12:48:06
Программа кодирования : mkvmerge v5.0.0 ('Die Wahre Liebe') built on Sep 25 2011 20:33:49
Библиотека кодирования : libebml v1.2.2 + libmatroska v1.3.0-Видео
Идентификатор : 1
Формат : AVC
Формат/Информация : Advanced Video Codec
Профиль формата : High@L3.1
Параметр CABAC формата : Нет
Параметр ReFrames формата : 2 кадра
Идентификатор кодека : V_MPEG4/ISO/AVC
Продолжительность : 44 м.
Битрейт : 4122 Кбит/сек
Ширина : 1280 пикселей
Высота : 720 пикселей
Соотношение сторон : 16:9
Частота кадров : 23,976 кадра/сек
Цветовое пространство : YUV
Субдискретизация насыщенности : 4:2:0
Битовая глубина : 8 бит
Тип развёртки : Прогрессивная
Бит/(Пиксели*Кадры) : 0.187
Размер потока : 1,28 Гбайт (86%)
Заголовок : CSI NY - Season 8, Episode 1: Indelible
Язык : English
Основные цвета : BT.709-5, BT.1361, IEC 61966-2-4, SMPTE RP177
Характеристики трансфера : BT.709-5, BT.1361
Коэффициенты матрицы : BT.709-5, BT.1361, IEC 61966-2-4 709, SMPTE RP177-Аудио #1
Идентификатор : 2
Формат : AC-3
Формат/Информация : Audio Coding 3
Расширение режима : CM (complete main)
Идентификатор кодека : A_AC3
Продолжительность : 44 м.
Вид битрейта : Постоянный
Битрейт : 192 Кбит/сек
Каналы : 2 канала
Расположение каналов : Front: L R
Частота : 48,0 КГц
Битовая глубина : 16 бит
Метод сжатия : С потерями
Размер потока : 61,2 Мбайт (4%)
Заголовок : nikolas
Язык : Russian-Аудио #2
Идентификатор : 3
Формат : AC-3
Формат/Информация : Audio Coding 3
Расширение режима : CM (complete main)
Идентификатор кодека : A_AC3
Продолжительность : 44 м.
Вид битрейта : Постоянный
Битрейт : 384 Кбит/сек
Каналы : 6 каналов
Расположение каналов : Front: L C R, Side: L R, LFE
Частота : 48,0 КГц
Битовая глубина : 16 бит
Метод сжатия : С потерями
Размер потока : 122 Мбайт (8%)
Заголовок : Dolby Digital 5.1 @ 384 kbps
Язык : English

Для чайников :)

Внимание! Раздача ведётся путём добавления новых серий; при каждом добавлении создётся новый торрент. Чтобы начать докачку новой серии, пользователям необходимо сделать следующее: (1) остановить скачивание, (2) удалить старый торрент у себя из клиента (старые серии удалять не надо), (3) скачать новый торрент и запустить его у себя в клиенте вместо старого, при этом указать клиенту путь в старую папку куда и должно происходить скачивание новых серий.
Ваш клиент при этом должен произвести хеширование (проверку) старой папки (если не производит сам - помогите ему сделать это), и будет докачивать только те серии которых у вас ещё нет. Старые серии при этом не удаляются, а продолжают раздаваться!
Eсли вы уже удалили старые серии, то предотвратить повторную закачку старых серий можно, отжав галочку в соответсвующих местах при запуске нового торрента.

Скриншоты


Добавлен эп. 18 (26/09). Перекачайте пожалуста торрент
Релиз:
[cybertorrent.ru].t7801.torrent 
Торрент: Зарегистрирован [ 2018-02-18 23:20 ] · 49B37A2AF6958B8F933C521CD4BE198AD6F98182

Скачать .torrent

Скачать

65 KB

Статус: проверено
Скачан: 0 раз
Размер: 25,34 GB
Профиль [ЛС]
Показать сообщения:    

Текущее время: 20-Май 19:37

Часовой пояс: UTC ± 0



Вы не можете начинать темы
Вы не можете отвечать на сообщения
Вы не можете редактировать свои сообщения
Вы не можете удалять свои сообщения
Вы не можете голосовать в опросах
Вы не можете прикреплять файлы к сообщениям
Вы можете скачивать файлы