Статистика раздачи
Размер:  13,22 GB   |    Зарегистрирован:  2 дня 17 часов   |    Скачан:  0 раз

Полного источника не было: Никогда

Личеров:  1  [  0 KB/s  ]   Подробная статистика пиров
 
   
 
 

duda ®

Пол:
Не указан
Стаж:
5 дней
Сообщений:
59

Два с половиной человека / Two and a Half Men
Год выпуска: 2007
Страна: США
Жанр: ситком
Продолжительность: ~19х20 мин
Перевод: Профессиональный (многоголосый, двухголосый, закадровый)
Субтитры: Английские
Авторы сериала: Ли Аронсон, Чак Лорри
В ролях: Чарли Шин, Джон Крайер, Энгус Т.Джонс, Кончата Феррелл, Холлэнд Тейлор, Марин Хинкль, Мелани Лински, Райан Стайлз, Эммануэль Вогье
Описание:
Закоренелый холостяк Чарли, постоянно опасающийся за свою свободу, и его брат Алан, когда-то разошедшийся с женой, живут под одной крышей. Чарли только и делает, что заводит любовные интрижки, а Алан всеми силами пытается от него не отстать. В свободное от амурных приключений время братья воспитывают сынишку Алана Джейка... уже 5ый год )
Доп.информация:
Перевод канала MTV Russia с эфира 30.05.2011-25.06.2011.
Дорожки с переводом НТВ взяты отсюда, спасибо krsk24sb3
Two and a Half Men на rutracker.org

Отчет MediaInfo одной из серий

Цитата:General
Complete name : E:\2.5\Two and a Half Men - Season 5 (WEB-DL, 720p, Rus-Eng)\E04 - City of Great Racks.mkv
Format : Matroska
File size : 734 MiB
Duration : 22mn 1s
Overall bit rate : 4 657 Kbps
Movie name : Two and a Half Men S05E04 - City of Great Racks
Encoded date : UTC 2011-10-02 09:04:19
Writing application : mkvmerge v4.9.1 ('Ich will') built on Jul 11 2011 23:53:15
Writing library : libebml v1.2.1 + libmatroska v1.1.1
Video
ID : 1
Format : AVC
Format/Info : Advanced Video Codec
Format profile : High@L3.1
Format settings, CABAC : No
Format settings, ReFrames : 2 frames
Codec ID : V_MPEG4/ISO/AVC
Duration : 22mn 1s
Bit rate mode : Variable
Width : 1 280 pixels
Height : 720 pixels
Display aspect ratio : 16:9
Frame rate : 23.976 fps
Color space : YUV
Chroma subsampling : 4:2:0
Bit depth : 8 bits
Scan type : Progressive
Language : English
Color primaries : BT.709-5, BT.1361, IEC 61966-2-4, SMPTE RP177
Transfer characteristics : BT.709-5, BT.1361
Matrix coefficients : BT.709-5, BT.1361, IEC 61966-2-4 709, SMPTE RP177
Audio #1
ID : 2
Format : AC-3
Format/Info : Audio Coding 3
Mode extension : CM (complete main)
Codec ID : A_AC3
Duration : 22mn 1s
Bit rate mode : Constant
Bit rate : 192 Kbps
Channel(s) : 2 channels
Channel positions : Front: L R
Sampling rate : 48.0 KHz
Bit depth : 16 bits
Stream size : 30.2 MiB (4%)
Title : MTV
Language : Russian
Audio #2
ID : 3
Format : AC-3
Format/Info : Audio Coding 3
Mode extension : CM (complete main)
Codec ID : A_AC3
Duration : 22mn 1s
Bit rate mode : Constant
Bit rate : 192 Kbps
Channel(s) : 2 channels
Channel positions : Front: L R
Sampling rate : 48.0 KHz
Bit depth : 16 bits
Stream size : 30.2 MiB (4%)
Title : NTV
Language : Russian
Audio #3
ID : 4
Format : AAC
Format/Info : Advanced Audio Codec
Format version : Version 4
Format profile : LC
Codec ID : A_AAC
Duration : 22mn 1s
Channel(s) : 2 channels
Channel positions : Front: L R
Sampling rate : 48.0 KHz
Title : ENG
Language : English
Text
ID : 5
Format : UTF-8
Codec ID : S_TEXT/UTF8
Codec ID/Info : UTF-8 Plain Text
Title : ENG
Language : English
Качество: WEB-DL (iTunes)
Формат: MKV
Видео кодек: H.264
Аудио кодек: AC3, AAC
Видео: MPEG4 Video (H264); 1280x720; 23.98 fps; ~4000 kbps, 0.17 bit/pixel
Аудио:
1 - AC3; 48000Hz; 2ch; 192 kbps [многоголосый перевод] MTV Russia (студия Кравец)
2 - AC3; 48000Hz; 2ch; 192 kbps [двухголосый перевод] НТВ
3 - AAC; 48000Hz; 2ch; 192 kbps [оригинал]

скриншоты

[cybertorrent.ru].t7802.torrent 
Торрент: Зарегистрирован [ 2018-02-18 23:20 ] · 0146DB13D0204E0E419B17E955E5C32835B60FA0

Скачать .torrent

Скачать

68 KB

Статус: проверено
Скачан: 0 раз
Размер: 13,22 GB
terms.php
Профиль [ЛС]
Показать сообщения:    

Текущее время: 21-Фев 16:55

Часовой пояс: UTC ± 0



Вы не можете начинать темы
Вы не можете отвечать на сообщения
Вы не можете редактировать свои сообщения
Вы не можете удалять свои сообщения
Вы не можете голосовать в опросах
Вы не можете прикреплять файлы к сообщениям
Вы можете скачивать файлы