Статистика раздачи
Размер:  8,08 GB   |    Зарегистрирован:  3 месяца 1 день   |    Скачан:  0 раз

Полного источника не было: Никогда

Личеров:  1  [  0 KB/s  ]  
 
   
 
 

Избранец ®

Пол:
Не указан
Стаж:
3 месяца 4 дня
Сообщений:
314

Частная практика / Private Practice
Год выпуска: 2011
Страна: США
Жанр: Драма
Продолжительность: 42 мин
Перевод: любительский одноголосый закадровый (Хамстер)
Русские субтитры: нет
Субтитры: Отсутствуют
Режиссёр: Марк Тинкер
В ролях: Кейт Уолш, Тим Дейли, Одра МакДональд, Пол Эдельштайн, КаДи Стрикленд, Крис Лоуэлл, Тэй Диггз, Эми Бреннеман, Дэвид Сатклифф, Брайан Бенбен, Катерина Скорсоне
Описание: Спин-офф сериала "Анатомия страсти" ( Grey's anatomy ), в котором главной героиней выступит доктор Эддисон Форбс Монтгомери, переехавшая в Санта-Монику и начавшая новую жизнь. Эддисон – известный хирург. Оставив работу в Сиэттле, рухнувший брак с Дереком Шепардом и неудавшиеся отношения с Марком Слоаном, она переезжает в Лос-Анджелес, в более солнечный климат и к более счастливым возможностям. Эддисон вновь встречается с друзьями по медицинской школе, Наоми и Сэмом Беннет, присоединяясь к работе в их шикарном Oceanside Wellness Center. Наоми – акушерка и специалист по гормонам, главный владелец клиники, а Сэм – терапевт и совладелец, чьи книги-самоучители принесли ему славу «медицинского гуру обычных людей». Недавно развелись, но вынуждены сосуществовать ради дочери Майи и общей практики, однако их отношения едва ли назовешь дружескими. Доктор Купер Фридман – прекрасный педиатр, но в личной жизни терпит неудачу за неудачей, притягивая «не тот тип женщин». Свидания через Интернет заканчивались для него плачевно. Утешение и совет Купер ищет у своей подруги, психиатра Вайолет Тернер, не более удачливой в сердечных делах. Доктор Пит Уайлдер – специалист по альтернативной медицине. Привлекательный и уверенный в себе, Пит может привлечь любую женщину и уже привлек – Эддисон. Несмотря на влечение, уверенность и даже самоуверенность Пита, он все еще не может оправиться от трагической смерти его жены восемь лет назад, поскольку с тех пор у него так и не было серьезных отношений. Но вместе с Эддисон может попробовать начать жизнь сначала и он.
Доп. информация:
Релиз:
Перевод на русский язык:
серии 1-2: Релиз-группа "Частная практика" (marina_81, Bre, Anhen)
серии 3-22: Нотабинойд (impossible, nastygirl, annamargarita, SeRRegina, mashvat, taninia, nastygirl, Nylon, tigoshka, mefodii, Danilos, onninen, Patata, gysenok, Puposha, azria, nus_rk, Yaha, kalerik, Demetria, Ollie, t5d, anay, lazyicat, Neonila, Jane, MarishkaMak, Natalie_777, Natie и другие)
Торрент обновлен - добавлена 22-я серия
Ссылка на предыдущие и альтернативные раздачи:
http://cybertorrent.ru/tracker.php?nm=Private+Practice
Сэмпл: http://multi-up.com/495632
Качество: HDTVRip
Формат: AVI
Видео кодек: XviD
Аудио кодек: MP3
Видео: 624x352 (1.77:1), 23.976 fps, XviD Final 1.0.2 (build 36) ~1722 kbps avg, 0.33 bit/pixel
Аудио: 44.100 kHz, MPEG Layer 3, 2 ch, ~192.00 kbps avg

MI

General
Complete name : E:\N-droid\сериалы 3\Private Practice s05\Private.Practice.s5e01.Hamster.avi
Format : AVI
Format/Info : Audio Video Interleave
File size : 581 MiB
Duration : 42mn 11s
Overall bit rate : 1 924 Kbps
Writing application : Lavf53.2.0
Writing library : VirtualDub build 32706/release
Video
ID : 0
Format : MPEG-4 Visual
Format profile : Simple@L3
Format settings, BVOP : Yes
Format settings, QPel : No
Format settings, GMC : No warppoints
Format settings, Matrix : Default (H.263)
Muxing mode : Packed bitstream
Codec ID : XVID
Codec ID/Hint : XviD
Duration : 42mn 11s
Bit rate : 1 722 Kbps
Width : 624 pixels
Height : 352 pixels
Display aspect ratio : 16:9
Frame rate : 23.976 fps
Resolution : 8 bits
Colorimetry : 4:2:0
Scan type : Progressive
Bits/(Pixel*Frame) : 0.327
Stream size : 520 MiB (90%)
Writing library : XviD 1.0.2 (UTC 2004-08-29)
Audio
ID : 1
Format : MPEG Audio
Format version : Version 1
Format profile : Layer 3
Codec ID : 55
Codec ID/Hint : MP3
Duration : 42mn 11s
Bit rate mode : Constant
Bit rate : 192 Kbps
Channel(s) : 2 channels
Sampling rate : 44.1 KHz
Video delay : 26ms
Stream size : 57.9 MiB (10%)
Alignment : Split accross interleaves
Interleave, duration : 42 ms (1.00 video frame)
Interleave, preload duration : 500 ms
Writing library : LAME3.93

Скриншоты

Внимание! Раздача ведётся путём добавления новых серий

Внимание! Раздача ведётся путём добавления новых серий; при каждом добавлении создётся новый торрент. Чтобы начать докачку новой серии, пользователям необходимо сделать следующее:
(1) остановить скачивание,
(2) удалить старый торрент у себя из клиента (старые серии удалять не надо),
(3) скачать новый торрент и запустить его у себя в клиенте вместо старого, при этом указать клиенту путь в старую папку куда и должно происходить скачивание новых серий.
Ваш клиент при этом должен произвести хеширование (проверку) старой папки (если не производит сам - помогите ему сделать это), и будет докачивать только те серии которых у вас ещё нет. Старые серии при этом не удаляются, а продолжают раздаваться!
Eсли вы уже удалили старые серии, то предотвратить повторную закачку старых серий можно, отжав галочку в соответсвующих местах при запуске нового торрента. По возможности, желательно не удалять старые серии как можно дольше чтобы релизёр не столько продолжал раздавать старые серии, а смог сконцентрироваться на новых.
[cybertorrent.ru].t7803.torrent 
Торрент: Зарегистрирован [ 2018-02-18 23:20 ] · B4B021E6D10FD8669D7B0A713AC668ADEBDF5497

Скачать .torrent

Скачать

22 KB

Статус: проверено
Скачан: 0 раз
Размер: 8,08 GB
Профиль [ЛС]
Показать сообщения:    

Текущее время: 20-Май 19:38

Часовой пояс: UTC ± 0



Вы не можете начинать темы
Вы не можете отвечать на сообщения
Вы не можете редактировать свои сообщения
Вы не можете удалять свои сообщения
Вы не можете голосовать в опросах
Вы не можете прикреплять файлы к сообщениям
Вы можете скачивать файлы