Статистика раздачи
Размер:  5,72 GB   |    Зарегистрирован:  3 месяца 1 день   |    Скачан:  0 раз

Полного источника не было: Никогда

Личеров:  1  [  0 KB/s  ]  
 
   
 
 

Избранец ®

Пол:
Не указан
Стаж:
3 месяца 4 дня
Сообщений:
314

-Private Practice / Частная практика- Год выпуска: 2011
Страна: США
Жанр: Драма, комедия
Продолжительность: ~ 42 минуты
Перевод: Любительский многоголосый закадровый (SAFARI SOUND)
Русские субтитры: нет
-Режиссёр: Марк Тинкер
В ролях: Кейт Уолш, Тим Дейли, Одра МакДональд, Пол Эдельштайн, КаДи Стрикленд, Крис Лоуэлл, Тэй Диггз, Эми Бреннеман, Дэвид Сатклифф, Брайан Бенбен, Катерина Скорсоне.
-Описание: Спин-офф сериала "Анатомия страсти" ( Grey's anatomy ), в котором главной героиней выступит доктор Эддисон Форбс Монтгомери, переехавшая в Санта-Монику и начавшая новую жизнь. Эддисон – известный хирург. Оставив работу в Сиэттле, рухнувший брак с Дереком Шепардом и неудавшиеся отношения с Марком Слоаном, она переезжает в Лос-Анджелес, в более солнечный климат и к более счастливым возможностям. Эддисон вновь встречается с друзьями по медицинской школе, Наоми и Сэмом Беннет, присоединяясь к работе в их шикарном Oceanside Wellness Center. Наоми – акушерка и специалист по гормонам, главный владелец клиники, а Сэм – терапевт и совладелец, чьи книги-самоучители принесли ему славу «медицинского гуру обычных людей». Недавно развелись, но вынуждены сосуществовать ради дочери Майи и общей практики, однако их отношения едва ли назовешь дружескими. Доктор Купер Фридман – прекрасный педиатр, но в личной жизни терпит неудачу за неудачей, притягивая «не тот тип женщин». Свидания через Интернет заканчивались для него плачевно. Утешение и совет Купер ищет у своей подруги, психиатра Вайолет Тернер, не более удачливой в сердечных делах. Доктор Пит Уайлдер – специалист по альтернативной медицине. Привлекательный и уверенный в себе, Пит может привлечь любую женщину и уже привлек – Эддисон. Несмотря на влечение, уверенность и даже самоуверенность Пита, он все еще не может оправиться от трагической смерти его жены восемь лет назад, поскольку с тех пор у него так и не было серьезных отношений. Но вместе с Эддисон может попробовать начать жизнь сначала и он.-Ссылка на предыдущие и альтернативные раздачи- Feat. Feat. -Над релизом работали:
Роли озвучивали: Collapse & Stacy (серии 1-4), Collapse & comina (серии 5-9), Collapse & comina & Ева (10-17 серии), Murzilka & Alex White & comina & Ева (18-19 серии), Murzilka & Alex White & Калинда & Ева & Stacy (20-22 серии)
Перевод: РГ "Частная практика"marina_81, Bre, Anhen, ko-13, Nuta, Nika
Редакция: Anhen, Nuta, TishaCat
Тайминг: TishaCat, Anhen
Тайминг аудио: micola777 (7 серия)
Тайминг аудио: Kyliknikylik (11-22 серии)
Подготовка видео: Stacy
- -Качество: TVRip
Формат: AVI
Видео кодек: XviD
Аудио кодек: MP3
Видео: 624x352(16:9), ~629 Kbps, 25.000 fps, XVID, Bits/(Pixel*Frame) : 0.144
Аудио: 48 kHz, MPEG-1A L3, 2 ch, 192 kbps

СПИСОК СЕРИЙ

5.01 - "God Laughs"/"Когда Бог смеётся"
5.02 - "Breaking the Rules"/"Нарушая правила"
5.03 - "Deal With It"/"Как достигнуть согласия"
5.04 - "Remember Me"/"Помни меня"
5.05 - "Step One"/"Шаг первый"
5.06 - "If I Hadn't Forgotten"/"А вдруг забыть не получится?.."
5.07 - "Don't Stop 'Till You Get Enough"/"Ещё не поздно остановиться"
5x08 - Who We Are/"Кто, если не мы?" и 5x09 - The Breaking Point/"Перелом" - сдвоенная серия!
5.10 - "Are You My Mother?"/"Ты моя мама?"
5.11 - "The Standing Eight Count"/"Подняться на счёт восемь"
5.12 - "Losing Battles"/"Без шансов на победу"
5.13 - "The Time Has Come"/"Время пришло"
5.14 - "Too Much"/"Больно"
5.15 - "You Break My Heart"/"Ты разбиваешь мне сердце..."
5.16 - "Andromeda"/"Андромеда"
5.17 - "The Letting Go"/"Избавление"
5.18 - "It Was Inevitable"/"Это было неизбежно"
5.19 - "And Then There Was One"/"Один единственный"
5.20 - "True Colors"/"Неприкрытая правда"
5.21 - "Drifting Back"/"Всё сначала"
5.22 - "Gone, Baby, Gone" / "Прощай, детка, прощай..."

MI

Format : AVI
Format/Info : Audio Video Interleave
File size : 250 MiB
Duration : 42mn 18s
Overall bit rate : 826 Kbps
Writing library : MPlayer
Video
ID : 0
Format : MPEG-4 Visual
Format profile : Advanced Simple@L5
Format settings, BVOP : 2
Format settings, QPel : No
Format settings, GMC : No warppoints
Format settings, Matrix : Default (H.263)
Codec ID : XVID
Codec ID/Hint : XviD
Duration : 42mn 18s
Bit rate : 629 Kbps
Width : 624 pixels
Height : 352 pixels
Display aspect ratio : 16:9
Frame rate : 25.000 fps
Original frame rate : 23.976 fps
Color space : YUV
Chroma subsampling : 4:2:0
Bit depth : 8 bits
Scan type : Progressive
Compression mode : Lossy
Bits/(Pixel*Frame) : 0.114
Stream size : 190 MiB (76%)
Writing library : XviD 1.1.2 (UTC 2006-11-01)
Audio
ID : 1
Format : MPEG Audio
Format version : Version 1
Format profile : Layer 3
Mode : Joint stereo
Mode extension : MS Stereo
Codec ID : 55
Codec ID/Hint : MP3
Duration : 42mn 18s
Bit rate mode : Constant
Bit rate : 192 Kbps
Channel(s) : 2 channels
Sampling rate : 48.0 KHz
Compression mode : Lossy
Delay relative to video : 40ms
Stream size : 58.1 MiB (23%)
Alignment : Split accross interleaves
Interleave, duration : 500 ms (12.50 video frames)
Interleave, preload duration : 500 ms
Writing library : LAME3.97

Скриншоты

Добавлена 22 серия.Пожалуйста,перекачайте торрент-файл.СЕЗОН ЗАВЕРШЕН.
[cybertorrent.ru].t7805.torrent 
Торрент: Зарегистрирован [ 2018-02-18 23:20 ] · 105711783EAAEB14A34C3EC36FABEDB1495276C9

Скачать .torrent

Скачать

17 KB

Статус: проверено
Скачан: 0 раз
Размер: 5,72 GB
Профиль [ЛС]
Показать сообщения:    

Текущее время: 20-Май 19:38

Часовой пояс: UTC ± 0



Вы не можете начинать темы
Вы не можете отвечать на сообщения
Вы не можете редактировать свои сообщения
Вы не можете удалять свои сообщения
Вы не можете голосовать в опросах
Вы не можете прикреплять файлы к сообщениям
Вы можете скачивать файлы