Статистика раздачи
Размер:  34,79 GB   |    Зарегистрирован:  3 дня   |    Скачан:  0 раз

Полного источника не было: Никогда

 
   
 
 

Slivka ®

Пол:
Не указан
Стаж:
6 дней
Сообщений:
93

Место Преступления: Майами / CSI: Miami
Год выпуска: 2004-2005
Страна: США
Жанр: Драма, детектив, триллер
Продолжительность: ~ 00:43:00
Перевод: профессиональный многоголосый закадровый
Русские субтитры: нет
Режиссёр: Энн Донахью, Кэрол Мендельсон, Энтони Е. Цукер
В ролях: Дэвид Карузо, Эмили Проктер, Адам Родригез, Канди Александр, Джонатан Того, София Милос и др.
Описание: Ласковое море, безоблачное небо, яркое солнце, белоснежный песок, шелест пальм и крики чаек… Это – рай на земле. Это – Майами. Но даже здесь порой совершаются преступления, пугающие своей жестокостью. Даже здесь полиция порой бывает бессильна. Именно поэтому на территории одного из самых красивых уголков планеты работает непревзойдённая команда профессионалов-криминалистов во главе со специалистом по раскрытию убийств Горацио Кейном. Они молоды, красивы и умны, но главное – они лучше всех способны разобраться даже в самых запутанных преступлениях. Вместе они словно из небытия достают улики и анализируют их при помощи самых современных методов. Вместе они карают тех, кто совершает странные и страшные преступления. Вместе они ищут разгадку и всегда находят её. Потому что они – лучшие в своём деле.

Доп. информация

7 серия
В версии WEB-DL продолжительность 00:44:18, что соответствует то что показывал ДТВ
в отличии от HDTV (01:05:00)
Ссылка на предыдущие и альтернативные раздачи
Сэмпл
Качество: WEB-DL 720p
Формат: MKV
Аудио кодек: AC3
Видео: 1280x720 (1.778), 23.976 fps, ~ 3900 Kbps, 0.180 bit/pixel
Аудио: AC-3 192 Kbps, 2 channels, 48.0 KHz / ДТВ /
Аудио 2: AC-3 384 Kbps, 6 channels, 48.0 KHz / Оригинал /

MI

General
Complete name : D:\Torrent\Serials\Место преступления Майами\CSI Miami S03 720p\CSI.Miami.S03E03.rus(DTV).eng.720p.web-dl Under the Influence.mkv
Format : Matroska
File size : 1.41 GiB
Duration : 44mn 18s
Overall bit rate : 4 543 Kbps
Movie name : Criminal.Minds.Suspect.Behavior.S01E01.Two.Of.A.Kind.720p.WEB.DL.DD5.1.AAC2.0.H.264.Reaperza.mkv 8880
Encoded date : UTC 2011-10-11 08:36:10
Writing application : mkvmerge v5.0.1 ('Es ist Sommer') built on Oct 9 2011 11:55:43
Writing library : libebml v1.2.2 + libmatroska v1.3.0
Video
ID : 1
Format : AVC
Format/Info : Advanced Video Codec
Format profile : High@L3.1
Format settings, CABAC : No
Format settings, ReFrames : 2 frames
Codec ID : V_MPEG4/ISO/AVC
Duration : 44mn 18s
Bit rate mode : Variable
Bit rate : 3 876 Kbps
Width : 1 280 pixels
Height : 720 pixels
Display aspect ratio : 16:9
Frame rate : 23.976 fps
Color space : YUV
Chroma subsampling : 4:2:0
Bit depth : 8 bits
Scan type : Progressive
Bits/(Pixel*Frame) : 0.175
Stream size : 1.20 GiB (85%)
Language : English
Color primaries : BT.709-5, BT.1361, IEC 61966-2-4, SMPTE RP177
Transfer characteristics : BT.709-5, BT.1361
Matrix coefficients : BT.709-5, BT.1361, IEC 61966-2-4 709, SMPTE RP177
Audio #1
ID : 2
Format : AC-3
Format/Info : Audio Coding 3
Mode extension : CM (complete main)
Codec ID : A_AC3
Duration : 44mn 18s
Bit rate mode : Constant
Bit rate : 192 Kbps
Channel(s) : 2 channels
Channel positions : Front: L R
Sampling rate : 48.0 KHz
Bit depth : 16 bits
Stream size : 60.9 MiB (4%)
Title : DTV
Language : Russian
Audio #2
ID : 3
Format : AC-3
Format/Info : Audio Coding 3
Mode extension : CM (complete main)
Codec ID : A_AC3
Duration : 44mn 18s
Bit rate mode : Constant
Bit rate : 384 Kbps
Channel(s) : 6 channels
Channel positions : Front: L C R, Side: L R, LFE
Sampling rate : 48.0 KHz
Bit depth : 16 bits
Stream size : 122 MiB (8%)
Language : English
[cybertorrent.ru].t7823.torrent 
Торрент: Зарегистрирован [ 2018-02-18 23:20 ] · 522934B04BC254F8ED839FD4619AB3C685A1A3D2

Скачать .torrent

Скачать

176 KB

Статус: проверено
Скачан: 0 раз
Размер: 34,79 GB
terms.php
Профиль [ЛС]
Показать сообщения:    

Текущее время: 22-Фев 18:48

Часовой пояс: UTC ± 0



Вы не можете начинать темы
Вы не можете отвечать на сообщения
Вы не можете редактировать свои сообщения
Вы не можете удалять свои сообщения
Вы не можете голосовать в опросах
Вы не можете прикреплять файлы к сообщениям
Вы можете скачивать файлы