Статистика раздачи
Размер:  515 MB   |    Зарегистрирован:  2 месяца 1 день   |    Скачан:  0 раз

Полного источника не было: Никогда

 
   
 
 

оно и видно ®

Пол:
Не указан
Стаж:
2 месяца 5 дней
Сообщений:
54

Metal City Sursee / MMXIV Sampler(2014)- Жанр: Crossover, Death Metal, Melodic Death Metal, Thras
Год издания: 2014
Страна: France
Продолжительность: 00:59:46-Носитель: CD
Аудиокодек: FLAC (*.flac)
Тип рипа: image+.cue
Битрейт аудио: lossless
Издатель (лейбл): Metal City Sursee
Номер по каталогу: MCS001
Источник: Собственный CD
Наличие сканов: Да (600 DPI)-Треклист:
01 - Exit - Upon All The Others 04:30
02 - Exit - Face The Enemy 05:15
03 - Intractable - Thats Me 03:48
04 - Intractable - Solve The Pain 06:03
05 - Sickret - Barbecue 03:38
06 - Sickret - Bastard 04:36
07 - Devils Rage - Inhuman 05:21
08 - Devils Rage - Stupid 04:58
09 - Karmageddon - Demons Rising 04:45
10 - Karmageddon - Karmageddon 04:26
11 - Loma - Lilly 03:19
12 - Loma - Hangover 03:24
13 - Inferno Tod - Haselwarte 03:02
14 - Inferno Tod - Schletzi 02:41- -

Лог создания рипа

Exact Audio Copy V1.1 from 23. June 2015
EAC extraction logfile from 19. May 2017, 3:57
Metal City Sursee / MMXIV Sampler
Used drive : HL-DT-STBD-RE BT11F Adapter: 1 ID: 0
Read mode : Secure
Utilize accurate stream : Yes
Defeat audio cache : Yes
Make use of C2 pointers : No
Read offset correction : 667
Overread into Lead-In and Lead-Out : No
Fill up missing offset samples with silence : Yes
Delete leading and trailing silent blocks : No
Null samples used in CRC calculations : Yes
Used interface : Native Win32 interface for Win NT & 2000
Used output format : User Defined Encoder
Selected bitrate : 128 kBit/s
Quality : High
Add ID3 tag : No
Command line compressor : C:\Program Files (x86)\FLAC\flac.exe
Additional command line options : -V -8 -T "Genre=%genre%" -T "Artist=%artist%" -T "Title=%title%" -T "Album=%albumtitle%" -T "Date=%year%" -T "Tracknumber=%tracknr%" -T "Comment=%comment%" %source%
TOC of the extracted CD
Track | Start | Length | Start sector | End sector
---------------------------------------------------------
1 | 0:00.00 | 4:29.48 | 0 | 20222
2 | 4:29.48 | 5:15.11 | 20223 | 43858
3 | 9:44.59 | 3:47.56 | 43859 | 60939
4 | 13:32.40 | 6:03.00 | 60940 | 88164
5 | 19:35.40 | 3:38.30 | 88165 | 104544
6 | 23:13.70 | 4:35.41 | 104545 | 125210
7 | 27:49.36 | 5:20.71 | 125211 | 149281
8 | 33:10.32 | 4:57.72 | 149282 | 171628
9 | 38:08.29 | 4:45.37 | 171629 | 193040
10 | 42:53.66 | 4:26.03 | 193041 | 212993
11 | 47:19.69 | 3:18.59 | 212994 | 227902
12 | 50:38.53 | 3:24.12 | 227903 | 243214
13 | 54:02.65 | 3:02.06 | 243215 | 256870
14 | 57:04.71 | 2:40.65 | 256871 | 268935
Range status and errors
Selected range
Filename D:\VovanKoperativ_Ripped_Music\Metal City Sursee - MMXIV Sampler (FLAC) (2014)\Metal City Sursee - MMXIV Sampler.wav
Peak level 100.0 %
Extraction speed 4.2 X
Range quality 100.0 %
Test CRC 6B029290
Copy CRC 6B029290
Copy OK
No errors occurred
AccurateRip summary
Track 1 not present in database
Track 2 not present in database
Track 3 not present in database
Track 4 not present in database
Track 5 not present in database
Track 6 not present in database
Track 7 not present in database
Track 8 not present in database
Track 9 not present in database
Track 10 not present in database
Track 11 not present in database
Track 12 not present in database
Track 13 not present in database
Track 14 not present in database
None of the tracks are present in the AccurateRip database
End of status report
---- CUETools DB Plugin V2.1.6
[CTDB TOCID: 77TXFLJ_XfDBekmx8y41Lu1K1Mg-] disk not present in database
Submit result: 77TXFLJ_XfDBekmx8y41Lu1K1Mg- has been uploaded
==== Log checksum 5FA9C799B22012EDBF18D86C87631EDE8F741284AC4824F4AF2B2C7CA7D0427F ====

Содержание индексной карты (.CUE)

REM GENRE "Crossover, Death Metal, Melodic Death Metal, Thrash Metal"
REM DATE 2014
REM DISCID C40E010E
REM COMMENT "ExactAudioCopy v1.1"
PERFORMER "Metal City Sursee"
TITLE "MMXIV Sampler"
FILE "Metal City Sursee - MMXIV Sampler.flac" WAVE
TRACK 01 AUDIO
TITLE "Upon All The Others"
PERFORMER "Exit"
INDEX 01 00:00:00
TRACK 02 AUDIO
TITLE "Face The Enemy"
PERFORMER "Exit"
INDEX 01 04:29:48
TRACK 03 AUDIO
TITLE "Thats Me"
PERFORMER "Intractable"
INDEX 01 09:44:59
TRACK 04 AUDIO
TITLE "Solve The Pain"
PERFORMER "Intractable"
INDEX 01 13:32:40
TRACK 05 AUDIO
TITLE "Bastard"
PERFORMER "Sickret"
INDEX 01 19:35:40
TRACK 06 AUDIO
TITLE "Barbecue"
PERFORMER "Sickret"
INDEX 01 23:13:70
TRACK 07 AUDIO
TITLE "Inhuman"
PERFORMER "Devils Rage"
INDEX 01 27:49:36
TRACK 08 AUDIO
TITLE "Stupid"
PERFORMER "Devils Rage"
INDEX 01 33:10:32
TRACK 09 AUDIO
TITLE "Demons Rising"
PERFORMER "Karmageddon"
INDEX 01 38:08:29
TRACK 10 AUDIO
TITLE "Karmageddon"
PERFORMER "Karmageddon"
INDEX 01 42:53:66
TRACK 11 AUDIO
TITLE "Lilly"
PERFORMER "Loma"
INDEX 01 47:19:69
TRACK 12 AUDIO
TITLE "Hangover"
PERFORMER "Loma"
INDEX 01 50:38:53
TRACK 13 AUDIO
TITLE "Haselwarte"
PERFORMER "Inferno Tod"
INDEX 01 54:02:65
TRACK 14 AUDIO
TITLE "Schletzi"
PERFORMER "Inferno Tod"
INDEX 01 57:04:71

Спектрограмма

Devils Rage (Discography) in FLAC Рекомендую приобретать лицензионную продукцию!
[cybertorrent.ru].t20400.torrent 
Торрент: Зарегистрирован [ 2018-02-22 04:30 ] · 7B083B4B5D22A0124DBB4D7859EF8307A877C8D0

Скачать .torrent

Скачать

12 KB

Статус: проверено
Скачан: 0 раз
Размер: 515 MB
Профиль [ЛС]
Показать сообщения:    

Текущее время: 24-Апр 02:59

Часовой пояс: UTC ± 0



Вы не можете начинать темы
Вы не можете отвечать на сообщения
Вы не можете редактировать свои сообщения
Вы не можете удалять свои сообщения
Вы не можете голосовать в опросах
Вы не можете прикреплять файлы к сообщениям
Вы можете скачивать файлы