Статистика раздачи
Размер:  35,96 GB   |    Зарегистрирован:  2 дня 19 часов   |    Скачан:  0 раз

Полного источника не было: Никогда

Личеров:  1  [  0 KB/s  ]   Подробная статистика пиров
 
   
 
 

Андрес ®

Пол:
Не указан
Стаж:
5 дней
Сообщений:
236

- Год выпуска: 2010
Страна: США
Жанр: Комедия, драма
Продолжительность: ~ 00:44:00
Перевод:
• Профессиональный многоголосый закадровый - студия "Кравец"
• Профессиональный многоголосый закадровый - телеканал "Домашний"
Русские субтитры: есть
Английские субтитры: есть
Режиссёр: Деран Сарафян, Дэвид Платт, Фред Гербер
В ролях: Хью Лори, Лиза Эдельштейн, Роберт Шон Леонард, Джесси Спенсер, Омар Эппс, Боббин Бергсторм, Оливия Уайлд, Питер Джекобсон
Описание:
Сериал House, M.D. рассказывает о команде врачей, которые должны правильно поставить диагноз пациенту и спасти его. В принципе сериал представляет из себя вариацию схемы «врач как детектив», но в отличие от остальных сериалов, где врачи обследуют уже мертвого пациента, в House, M.D. больной находится еще в живых. Возглавляет команду доктор Грегори Хаус, который ходит с тростью после того, как его мышечный инфаркт в правой ноге слишком поздно правильно диагностировали. Как врач Хаус просто гений, но сам не отличается проникновенностью в общении с больными и с удовольствием избегает их, если только есть возможность. Он сам всё время проводит в борьбе с собственной болью, а трость в его руке только подчеркивает его жесткую ядовитую манеру общения. Порой его поведение можно назвать почти бесчеловечным, и при этом он прекрасный врач, обладаюший нетипичным умом и безупречным инстинктом, что снискало ему глубокое уважение. Будучи инфекционистом, он ещё и замечательный диагност, который любит разгадывать медицинские загадки, чтобы спасти кому-то жизнь. Если бы все было по его воле, то Хаус лечил бы больных не выходя из своего кабинета.-Все раздачи сериала | Сэмпл | КиноПоиск | IMDb-Качество: WEB-DL 720p
Формат: MKV
Видео кодек: H.264
Аудио кодек: AC3
Видео: 1280x720 (16:9), ~4000 kbps, 23.976 fps, 0.189 bit/pixel
Аудио #1: 48000 Hz, 6 ch, 384 Kbps |Original|
Аудио #2: 48000 Hz, 6 ch, 448 Kbps |студия "Кравец"|
Аудио #3: 48000 Hz, 2 ch, 192 Kbps |телеканал "Домашний"|
Субтитры #1: RUS (полухардсаб)
Субтитры #2: ENG (полухардсаб)-Звуковая дорожка студии "Кравец" взята от сюда http://rutracker.org/forum/viewtopic.php?t=3169919
Звуковая дорожка телеканала "Домашний" взята от сюда http://rutracker.org/forum/viewtopic.php?t=3715431-

MI

Код:General
Unique ID : 172980369028027455522619394140997991990 (0x8222CEA7F35C86EFA168E01A216CBE36)
Complete name : D:\House M.D. S07. 720p.WEB-DL.2xRus\House M.D. 03 - Unwritten.mkv
Format : Matroska
Format version : Version 2
File size : 1.62 GiB
Duration : 43mn 47s
Overall bit rate : 5 292 Kbps
Movie name : House M.D. [Season 7] (2010) - Release for HDCLUB
Encoded date : UTC 2011-09-28 17:39:33
Writing application : mkvmerge v4.0.0 ('The Stars were mine') сборка от Jun 6 2010 16:18:42
Writing library : libebml v1.0.0 + libmatroska v1.0.0
Video
ID : 1
Format : AVC
Format/Info : Advanced Video Codec
Format profile : High@L3.1
Format settings, CABAC : No
Format settings, ReFrames : 2 frames
Codec ID : V_MPEG4/ISO/AVC
Duration : 43mn 47s
Bit rate : 4 163 Kbps
Width : 1 280 pixels
Height : 720 pixels
Display aspect ratio : 16:9
Frame rate : 23.976 fps
Color space : YUV
Chroma subsampling : 4:2:0
Bit depth : 8 bits
Scan type : Progressive
Bits/(Pixel*Frame) : 0.188
Stream size : 1.27 GiB (79%)
Title : Season 7, Episode 3: Unwritten / Недописанное
Language : English
Color primaries : BT.709-5, BT.1361, IEC 61966-2-4, SMPTE RP177
Transfer characteristics : BT.709-5, BT.1361
Matrix coefficients : BT.709-5, BT.1361, IEC 61966-2-4 709, SMPTE RP177
Audio #1
ID : 2
Format : AC-3
Format/Info : Audio Coding 3
Mode extension : CM (complete main)
Codec ID : A_AC3
Duration : 43mn 47s
Bit rate mode : Constant
Bit rate : 384 Kbps
Channel(s) : 6 channels
Channel positions : Front: L C R, Side: L R, LFE
Sampling rate : 48.0 KHz
Bit depth : 16 bits
Compression mode : Lossy
Stream size : 120 MiB (7%)
Title : Original
Language : English
Audio #2
ID : 3
Format : AC-3
Format/Info : Audio Coding 3
Mode extension : CM (complete main)
Codec ID : A_AC3
Duration : 43mn 47s
Bit rate mode : Constant
Bit rate : 448 Kbps
Channel(s) : 6 channels
Channel positions : Front: L C R, Side: L R, LFE
Sampling rate : 48.0 KHz
Bit depth : 16 bits
Compression mode : Lossy
Stream size : 140 MiB (8%)
Title : Многоголосый закадровый - студия "Кравец"
Language : Russian
Audio #3
ID : 4
Format : AC-3
Format/Info : Audio Coding 3
Mode extension : CM (complete main)
Codec ID : A_AC3
Duration : 43mn 47s
Bit rate mode : Constant
Bit rate : 192 Kbps
Channel(s) : 2 channels
Channel positions : Front: L R
Sampling rate : 48.0 KHz
Bit depth : 16 bits
Compression mode : Lossy
Stream size : 60.1 MiB (4%)
Title : Многоголосый закадровый - телеканал Домашний
Language : Russian
Text #1
ID : 5
Format : UTF-8
Codec ID : S_TEXT/UTF8
Codec ID/Info : UTF-8 Plain Text
Language : Russian
Text #2
ID : 6
Format : UTF-8
Codec ID : S_TEXT/UTF8
Codec ID/Info : UTF-8 Plain Text
Language : English

Скриншоты:

Список эпизодов:

01. Now What? / И что теперь?
02. Selfish / Эгоизм
03. Unwritten / Недописанное
04. Massage Therapy / Лечебный массаж
05. Unplanned Parenthood / Родители вне плана
06. Office Politics / Политика компании
07. A Pox on Our House / Хаус во время
08. Small Sacrifices / Маленькие жертвы
09. Larger Than Life / Во весь рост
10. Carrot or Stick / Кнут и пряник
11. Family Practice / Семейный врач
12. You Must Remember This / Вы должны это помнить
13. Two Stories / Две истории
14. Recession Proof / Несмотря ни на что
15. Bombshells / Гром среди ясного неба
16. Out of the Chute / Полный отрыв
17. Fall from Grace / Без благодати
18. The Dig / Раскопки
19. Last Temptation / Последнее искушение
20. Changes / Перемены
21. The Fix / Доза
22. After Hours / После работы
23. Moving On / Жизнь продолжается

Внимание! Раздача ведется путем добавления новых серий!

Внимание! Раздача ведётся путём добавления новых серий; при каждом добавлении создаётся новый торрент. Чтобы начать докачку новой серии, пользователям необходимо сделать следующее:
(1) остановить скачивание,
(2) удалить старый торрент у себя из клиента (старые серии удалять не надо),
(3) скачать новый торрент и запустить его у себя в клиенте вместо старого, при этом указать клиенту путь в старую папку куда и должно происходить скачивание новых серий.
Ваш клиент при этом должен произвести хеширование (проверку) старой папки (если не производит сам - помогите ему сделать это), и будет докачивать только те серии которых у вас ещё нет. Старые серии при этом не удаляются, а продолжают раздаваться!
Eсли вы уже удалили старые серии, то предотвратить повторную закачку старых серий можно, отжав галочку в соответствующих местах при запуске нового торрента. По возможности, желательно не удалять старые серии как можно дольше чтобы релизёр не столько продолжал раздавать старые серии, а смог сконцентрироваться на новых.
-ВНИМАНИЕ!
Раздача обновлена 10.10.11. Добавлены серии 18-23
Полный сезон
-
[cybertorrent.ru].t7788.torrent 
Торрент: Зарегистрирован [ 2018-02-18 23:20 ] · 72D1988B451C881FAD6FD86A30F9B918CC87C2C5

Скачать .torrent

Скачать

182 KB

Статус: проверено
Скачан: 0 раз
Размер: 35,96 GB
terms.php
Профиль [ЛС]
Показать сообщения:    

Текущее время: 21-Фев 19:00

Часовой пояс: UTC ± 0



Вы не можете начинать темы
Вы не можете отвечать на сообщения
Вы не можете редактировать свои сообщения
Вы не можете удалять свои сообщения
Вы не можете голосовать в опросах
Вы не можете прикреплять файлы к сообщениям
Вы можете скачивать файлы