Статистика раздачи
Размер:  30,02 GB   |    Зарегистрирован:  2 дня 19 часов   |    Скачан:  0 раз

Полного источника не было: Никогда

 
   
 
 

Андрес ®

Пол:
Не указан
Стаж:
5 дней
Сообщений:
236

-Доктор Хаус Cезон 8 (Серии 1-22{22}) / HOUSE M.D. Season 8- Дата выхода в эфир: 2011
Страна: США
Жанр: драма
Продолжительность: ~43 минуты
Перевод: оригинал
Русские субтитры: есть
Субтитры: русские (внешние, *.srt) notabenoid-Режиссёр: Грег Йейтанес
В ролях: Хью Лори, Роберт Шон Леонард, Омар Эппс, Джесси Спенсер, Оливия Уайлд-Сериал House, M.D. рассказывает о команде врачей, которые должны правильно поставить диагноз пациенту и спасти его. В принципе сериал представляет из себя вариацию схемы «врач как детектив», но в отличие от остальных сериалов, где врачи обследуют уже мертвого пациента, в House, M.D. больной находится еще в живых.Возглавляет команду доктор Грегори Хаус, который ходит с тростью после того, как его мышечный инфаркт в правой ноге слишком поздно правильно диагностировали. Как врач Хаус просто гений, но сам не отличается проникновенностью в общении с больными и с удовольствием избегает их, если только есть возможность. Он сам всё время проводит в борьбе с собственной болью, а трость в его руке только подчеркивает его жесткую, ядовитую манеру общения. Порой его поведение можно назвать почти бесчеловечным, и при этом он прекрасный врач, обладающий нетипичным умом и безупречным инстинктом, что снискало ему глубокое уважение. Будучи инфекционистом, он ещё и замечательный диагност, который любит разгадывать медицинские загадки, чтобы спасти кому-то жизнь. Если бы все было по его воле, то Хаус лечил бы больных не выходя из своего кабинета.-Качество: WEB-DL 720p
Формат: MKV
Видео кодек: H.264
Аудио кодек: AC3
Видео: 1280x720 (16:9), 23.976 fps, H.264, ~4 000 Kbps avg, 0.178 bit/pixel
Аудио: 48 kHz, AC3 Dolby Digital, 5.1 ch, 384 kbps avg |Оригинал ENG|-При поддержке: JigSaW_3-8x01 |   3 октября  2011  | «Twenty Vicodin» («Двадцать викодинок»)
8x02 |  10 октября 2011  | «Transplant» («Трансплант»)
8x03 |  17 октября 2011  | «Charity Case» («Дела благотворительные»)
8x04 |  31 октября 2011  | «Risky Business» («Рисковое дело»)
8x05 |    7 ноября  2011  | «The Confession» («Исповедь»)
8x06 |  14 ноября  2011  | «Parents» («Родители»)
8x07 |  21 ноября  2011  | «Dead & Buried» («Мертвы и похоронены»)
8x08 |   28 ноября 2011  | «Perils of Paranoia» («Опасности Паранойи»)
8x09 |   23 января 2012  | «Better Half» («Лучшая половина»)
8x10 |  30 января  2012  | «Runaways» («Беглецы»)
8x11 |  6 февраля 2012  | «Nobody's Fault» («Никто не виновен»)
8x12 | 13 февраля 2012 | «Chase» («Чейз»)
8x13 | 20 февраля 2012 | «Man of the House» («Кто здесь хозяин»)
8x14 | 27 февраля 2012 | «Love is Blind» («Любовь слепа»)
8x15 |   2  апреля 2012   | «Blowing the Whistle» («Стукачок»)
8x16 |   9  апреля 2012   | «Gut Check» («Проверка на вшивость»)
8x17 |  16 апреля 2012   | «We Need the Eggs» («Нужно быть мужиками»)
8x18 |  23 апреля 2012   | «Body and Soul» («Тело и душа»)
8x19 |  30 апреля 2012   | «The C Word» («Слово на букву "Р"»)
8x20 |      7 мая  2012      | «Post Mortem» («После cмерти»)
8x21 |    14 мая  2012      | «Holding On» («Не сдаваясь»)
8x22 |    21 мая  2012      | «Everybody Dies» («Все умирают»)-Все раздачи сериала | КиноПоиск | IMDB-

MediaInfo

General
Unique ID : 185266807330371276324534614510656367161 (0x8B6116D568A0452D89E2BD0BA1812A39)
Complete name : C:\House M.D\House.S08E02.720p.WEB-DL.DD5.1.H.264-POD.mkv
Format : Matroska
Format version : Version 2
File size : 1.35 GiB
Duration : 43mn 47s
Overall bit rate : 4 410 Kbps
Encoded date : UTC 2011-10-11 08:44:21
Writing application : mkvmerge v4.0.0 ('The Stars were mine') built on Jun 6 2010 16:18:42
Writing library : libebml v1.0.0 + libmatroska v1.0.0
Video
ID : 1
Format : AVC
Format/Info : Advanced Video Codec
Format profile : High@L3.1
Format settings, CABAC : No
Format settings, ReFrames : 2 frames
Format settings, GOP : M=2, N=48
Codec ID : V_MPEG4/ISO/AVC
Duration : 43mn 47s
Bit rate : 3 938 Kbps
Width : 1 280 pixels
Height : 720 pixels
Display aspect ratio : 16:9
Frame rate : 23.976 fps
Color space : YUV
Chroma subsampling : 4:2:0
Bit depth : 8 bits
Scan type : Progressive
Bits/(Pixel*Frame) : 0.178
Stream size : 1.20 GiB (89%)
Language : English
Color primaries : BT.709-5, BT.1361, IEC 61966-2-4, SMPTE RP177
Transfer characteristics : BT.709-5, BT.1361
Matrix coefficients : BT.709-5, BT.1361, IEC 61966-2-4 709, SMPTE RP177
Audio
ID : 2
Format : AC-3
Format/Info : Audio Coding 3
Mode extension : CM (complete main)
Codec ID : A_AC3
Duration : 43mn 47s
Bit rate mode : Constant
Bit rate : 384 Kbps
Channel(s) : 6 channels
Channel positions : Front: L C R, Side: L R, LFE
Sampling rate : 48.0 KHz
Bit depth : 16 bits
Compression mode : Lossy
Stream size : 120 MiB (9%)
Language : English

Скриншоты

S08E01 «Twenty Vicodin»

S08E02 «Transplant»

Внимание! Раздача ведется путём добавления новых серий.

Внимание! Раздача ведётся путём добавления новых серий; при каждом добавлении создётся новый торрент. Чтобы начать докачку новой серии, пользователям необходимо сделать следующее:-1) остановить скачивание,
2) удалить старый торрент у себя из клиента (старые серии удалять не надо),
3) скачать новый торрент и запустить его у себя в клиенте вместо старого, при этом указать клиенту путь в старую папку куда и должно происходить скачивание новых серий.-Ваш клиент при этом должен произвести хеширование (проверку) старой папки (если не производит сам - помогите ему сделать это), и будет докачивать только те серии которых у вас ещё нет. Старые серии при этом не удаляются, а продолжают раздаваться!
Eсли вы уже удалили старые серии, то предотвратить повторную закачку старых серий можно, отжав галочку в соответсвующих местах при запуске нового торрента.-... Как закачать отдельный файл из торрента или докачать ранее пропущенные файлы торрента!
[cybertorrent.ru].t7809.torrent 
Торрент: Зарегистрирован [ 2018-02-18 23:20 ] · A5F40DEC0FD9109FACB788FDE69B3EA65C4517EC

Скачать .torrent

Скачать

79 KB

Статус: проверено
Скачан: 0 раз
Размер: 30,02 GB
terms.php
Профиль [ЛС]
Показать сообщения:    

Текущее время: 21-Фев 18:55

Часовой пояс: UTC ± 0



Вы не можете начинать темы
Вы не можете отвечать на сообщения
Вы не можете редактировать свои сообщения
Вы не можете удалять свои сообщения
Вы не можете голосовать в опросах
Вы не можете прикреплять файлы к сообщениям
Вы можете скачивать файлы