Статистика раздачи
Размер:  32,4 GB   |    Зарегистрирован:  3 месяца 1 день   |    Скачан:  0 раз

Полного источника не было: Никогда

 
   
 
 

O_O ®

Пол:
Не указан
Стаж:
3 месяца 4 дня
Сообщений:
223

--Декстер /Dexter-- Год выпуска: 2011
Страна: США | Showtime
Жанр: триллер, драма, криминал, детектив
Продолжительность: ~ 52 минуты
Перевод: Профессиональный (многоголосый, закадровый) - NovaFilm
Субтитры: Русские (форсированные), Английские (7-12 серии)
Режиссёры: Джон Дал, Роберт Либерман-В ролях: Майкл С. Холл, Дженнифер Карпентер, Лорен Велес, Дэвид Зайас, Джеймс Римар, К.С. Ли, Десмонд Харрингтон и др.-Описание: Продолжение истории самого главного убийцы Америки Декстера Моргана. Он все так же умен, расчетлив и хладнокровен. Он по-прежнему придерживается своего кодекса о том, что не должны пострадать невинные люди. Однако, потенциальные жертвы Декстера также становятся все опаснее и изворотливее.-Качество: HDTVRip 720p (1-6) / BDRip 720p (7-12)
Формат: MKV
Видео кодек: H.264
Аудио кодек: AC3
Видео: 1280x720 (16:9), 23.976 fps, ~5000 / 8000 kbps, ~0.220 / ~0.360 bit/pixel
Аудио Rus: 48 kHz, 2 ch, ~384 / 640 kbps |NovaFilm|
Аудио Eng: 48 kHz, 2 ch, ~384 / 448 kbps |Original|-
Озвучка: pozakazu-тв
Перевод: hatifnatten-Все раздачи сериала / Сэмпл / ImDB / Кинопоиск-

Список серий

  • Those Kinds of Things / Прописные Истины
  • Once Upon a Time... / Жили-были...
  • Smokey and the Bandit / Смоки и Бандит
  • A Horse of a Different Color / Другой Масти Лошадь
  • The Angel of Death / Ангел Смерти
  • Just Let Go / Не Держи Зла
  • Nebraska / Небраска
  • Sin of Omission / Грех Недеяния
  • Get Gellar / В Погоне За Гелларом
  • Ricochet Rabbit / Кролик Рикошет
  • Talk to the Hand / Что Расскажет Рука
  • This Is the Way the World Ends / Так Кончается Мир
  • Скриншоты

    1-6 серии

    7-12 серии

    MediaInfo

    HDTVRip 720p

    Общее
    Уникальный идентификатор : 242602302907764496667054603012667034616 (0xB68381047D03CDABA6FDBC8D013B4BF8)
    Формат : Matroska
    Версия формата : Version 2
    Размер файла : 2,19 Гбайт
    Продолжительность : 54 м.
    Общий поток : 5695 Кбит/сек
    Дата кодирования : UTC 2011-10-09 17:24:17
    Программа кодирования : mkvmerge v4.9.1 ('Ich will') сборка от Jul 11 2011 23:53:15
    Библиотека кодирования : libebml v1.2.1 + libmatroska v1.1.1
    Видео
    Идентификатор : 1
    Формат : AVC
    Формат/Информация : Advanced Video Codec
    Профиль формата : High@L4.1
    Параметр CABAC формата : Да
    Параметр ReFrames формата : 6 кадров
    Идентификатор кодека : V_MPEG4/ISO/AVC
    Продолжительность : 54 м.
    Битрейт : 4925 Кбит/сек
    Ширина : 1280 пикселей
    Высота : 720 пикселей
    Соотношение сторон : 16:9
    Режим частоты кадров : Постоянный
    Частота кадров : 23,976 кадра/сек
    Цветовое пространство : YUV
    Субдискретизация насыщенности : 4:2:0
    Битовая глубина : 8 бит
    Тип развёртки : Прогрессивная
    Бит/(Пиксели*Кадры) : 0.223
    Размер потока : 1,85 Гбайт (85%)
    Заголовок : Dexter - Season 6, Episode 1: Those Kinds of Things ("Прописные Истины")
    Библиотека кодирования : x264 core 116 r2074 2641b9e
    Настройки программы : cabac=1 / ref=6 / deblock=1:-3:-3 / analyse=0x3:0x133 / me=umh / subme=6 / psy=1 / psy_rd=1.00:0.00 / mixed_ref=1 / me_range=24 / chroma_me=1 / trellis=2 / 8x8dct=1 / cqm=0 / deadzone=21,11 / fast_pskip=1 / chroma_qp_offset=-4 / threads=3 / sliced_threads=0 / nr=0 / decimate=1 / interlaced=0 / bluray_compat=0 / constrained_intra=0 / bframes=3 / b_pyramid=0 / b_adapt=2 / b_bias=0 / direct=3 / weightb=1 / open_gop=0 / weightp=2 / keyint=250 / keyint_min=23 / scenecut=40 / intra_refresh=0 / rc_lookahead=40 / rc=2pass / mbtree=1 / bitrate=4925 / ratetol=1.0 / qcomp=0.60 / qpmin=10 / qpmax=51 / qpstep=4 / cplxblur=20.0 / qblur=0.5 / ip_ratio=1.40 / aq=1:1.00
    Язык : English
    Default : Да
    Forced : Нет
    Аудио #1
    Идентификатор : 2
    Формат : AC-3
    Формат/Информация : Audio Coding 3
    Расширение режима : CM (complete main)
    Параметр Endianness формата : Big
    Идентификатор кодека : A_AC3
    Продолжительность : 54 м.
    Вид битрейта : Постоянный
    Битрейт : 384 Кбит/сек
    Каналы : 6 каналов
    Расположение каналов : Front: L C R, Side: L R, LFE
    Частота : 48,0 КГц
    Битовая глубина : 16 бит
    Метод сжатия : С потерями
    Размер потока : 151 Мбайт (7%)
    Заголовок : Dolby Digital 5.1 @ 384 kbps
    Язык : Russian
    Default : Да
    Forced : Нет
    Аудио #2
    Идентификатор : 3
    Формат : AC-3
    Формат/Информация : Audio Coding 3
    Расширение режима : CM (complete main)
    Параметр Endianness формата : Big
    Идентификатор кодека : A_AC3
    Продолжительность : 54 м.
    Вид битрейта : Постоянный
    Битрейт : 384 Кбит/сек
    Каналы : 2 канала
    Расположение каналов : Front: L R
    Частота : 48,0 КГц
    Битовая глубина : 16 бит
    Метод сжатия : С потерями
    Задержка видео : 108 мс.
    Размер потока : 151 Мбайт (7%)
    Заголовок : Dolby Digital 5.1 @ 384 kbps
    Язык : English
    Default : Нет
    Forced : Нет
    Текст
    Идентификатор : 4
    Формат : ASS
    Идентификатор кодека : S_TEXT/ASS
    Идентификатор кодека/Информация : Advanced Sub Station Alpha
    Метод сжатия : Без потерь
    Заголовок : Forced
    Язык : Russian
    Default : Да
    Forced : Нет

    BDRip 720p

    Общее
    Уникальный идентификатор : 195800655026379463878662916306384018736 (0x934DD59F78BC9F3F8400D8AAB52D5D30)
    Формат : Matroska
    Версия формата : Version 2
    Размер файла : 3,30 Гбайт
    Продолжительность : 52 м.
    Общий поток : 9084 Кбит/сек
    Дата кодирования : UTC 2012-10-02 14:56:21
    Программа кодирования : mkvmerge v4.0.0 ('The Stars were mine') сборка от Jun 6 2010 16:18:42
    Библиотека кодирования : libebml v1.0.0 + libmatroska v1.0.0
    Видео
    Идентификатор : 1
    Формат : AVC
    Формат/Информация : Advanced Video Codec
    Профиль формата : High@L4.1
    Параметр CABAC формата : Да
    Параметр ReFrames формата : 9 кадров
    Идентификатор кодека : V_MPEG4/ISO/AVC
    Битрейт : 8000 Кбит/сек
    Ширина : 1280 пикселей
    Высота : 720 пикселей
    Соотношение сторон : 16:9
    Режим частоты кадров : Переменный
    Частота кадров в оригинале : 23,976 кадра/сек
    Цветовое пространство : YUV
    Субдискретизация насыщенности : 4:2:0
    Битовая глубина : 8 бит
    Тип развёртки : Прогрессивная
    Бит/(Пиксели*Кадры) : 0.362
    Заголовок : Dexter - Season 6, Episode 7: Nebraska ("Небраска")
    Библиотека кодирования : x264 core 116 r2057 0ba8a9c
    Настройки программы : cabac=1 / ref=9 / deblock=1:-3:-3 / analyse=0x3:0x133 / me=umh / subme=10 / psy=1 / psy_rd=1.00:0.00 / mixed_ref=1 / me_range=32 / chroma_me=1 / trellis=2 / 8x8dct=1 / cqm=0 / deadzone=21,11 / fast_pskip=0 / chroma_qp_offset=-2 / threads=14 / sliced_threads=0 / nr=0 / decimate=0 / interlaced=0 / bluray_compat=0 / constrained_intra=0 / bframes=7 / b_pyramid=2 / b_adapt=2 / b_bias=0 / direct=3 / weightb=1 / open_gop=0 / weightp=2 / keyint=250 / keyint_min=23 / scenecut=40 / intra_refresh=0 / rc_lookahead=40 / rc=2pass / mbtree=0 / bitrate=8000 / ratetol=1.0 / qcomp=0.65 / qpmin=0 / qpmax=40 / qpstep=4 / cplxblur=20.0 / qblur=0.5 / vbv_maxrate=50000 / vbv_bufsize=50000 / nal_hrd=none / ip_ratio=1.25 / pb_ratio=1.25 / aq=1:0.65
    Язык : English
    Default : Да
    Forced : Нет
    Аудио #1
    Идентификатор : 2
    Формат : AC-3
    Формат/Информация : Audio Coding 3
    Расширение режима : CM (complete main)
    Параметр Endianness формата : Big
    Идентификатор кодека : A_AC3
    Продолжительность : 52 м.
    Вид битрейта : Постоянный
    Битрейт : 640 Кбит/сек
    Каналы : 6 каналов
    Расположение каналов : Front: L C R, Side: L R, LFE
    Частота : 48,0 КГц
    Битовая глубина : 16 бит
    Метод сжатия : С потерями
    Размер потока : 238 Мбайт (7%)
    Заголовок : Dolby Digital 5.1 @ 640 kbps
    Язык : Russian
    Default : Да
    Forced : Нет
    Аудио #2
    Идентификатор : 3
    Формат : AC-3
    Формат/Информация : Audio Coding 3
    Расширение режима : CM (complete main)
    Параметр Endianness формата : Big
    Идентификатор кодека : A_AC3
    Продолжительность : 52 м.
    Вид битрейта : Постоянный
    Битрейт : 448 Кбит/сек
    Каналы : 6 каналов
    Расположение каналов : Front: L C R, Side: L R, LFE
    Частота : 48,0 КГц
    Битовая глубина : 16 бит
    Метод сжатия : С потерями
    Размер потока : 167 Мбайт (5%)
    Заголовок : Dolby Digital 5.1 @ 640 kbps
    Язык : English
    Default : Нет
    Forced : Нет
    Текст #1
    Идентификатор : 4
    Формат : ASS
    Идентификатор кодека : S_TEXT/ASS
    Идентификатор кодека/Информация : Advanced Sub Station Alpha
    Метод сжатия : Без потерь
    Заголовок : Forced
    Язык : Russian
    Default : Да
    Forced : Нет
    Текст #2
    Идентификатор : 5
    Формат : UTF-8
    Идентификатор кодека : S_TEXT/UTF8
    Идентификатор кодека/Информация : UTF-8 Plain Text
    Язык : English
    Default : Нет
    Forced : Нет
    Меню
    00:00:00.000 : en:00:00:00.000
    00:02:49.503 : en:00:02:49.503
    00:12:09.979 : en:00:12:09.979
    00:22:07.201 : en:00:22:07.201
    00:30:34.833 : en:00:30:34.833
    00:41:20.478 : en:00:41:20.478
    00:50:57.846 : en:00:50:57.846

    Внимание! Раздача ведётся путём добавления новых серий.

    Внимание! Раздача ведётся путём добавления новых серий; при каждом добавлении создётся новый торрент. Чтобы начать докачку новой серии, пользователям необходимо сделать следующее:
  • Остановить скачивание.
  • Удалить старый торрент у себя из клиента (старые серии удалять не надо).
  • Скачать новый торрент и запустить его у себя в клиенте вместо старого, при этом указать клиенту путь в старую папку куда и должно происходить скачивание новых серий.
    Ваш клиент при этом должен произвести хеширование (проверку) старой папки (если не производит сам - помогите ему сделать это), и будет докачивать только те серии которых у вас ещё нет. Старые серии при этом не удаляются, а продолжают раздаваться!
    Eсли вы уже удалили старые серии, то предотвратить повторную закачку старых серий можно, отжав галочку в соответсвующих местах при запуске нового торрента. По возможности, желательно не удалять старые серии как можно дольше чтобы релизёр не столько продолжал раздавать старые серии, а смог сконцентрироваться на новых.
    Как закачать отдельный файл из торрента или докачать ранее пропущенные файлы торрента!
  • [cybertorrent.ru].t7817.torrent 
    Торрент: Зарегистрирован [ 2018-02-18 23:20 ] · 491000FD69E612C1048F559C818DDA39137DBAE9

    Скачать .torrent

    Скачать

    163 KB

    Статус: проверено
    Скачан: 0 раз
    Размер: 32,4 GB
    Профиль [ЛС]
    Показать сообщения:    

    Текущее время: 20-Май 19:50

    Часовой пояс: UTC ± 0



    Вы не можете начинать темы
    Вы не можете отвечать на сообщения
    Вы не можете редактировать свои сообщения
    Вы не можете удалять свои сообщения
    Вы не можете голосовать в опросах
    Вы не можете прикреплять файлы к сообщениям
    Вы можете скачивать файлы