Статистика раздачи
Размер:  4,31 GB   |    Зарегистрирован:  3 дня   |    Скачан:  0 раз

Полного источника не было: Никогда

Личеров:  1  [  0 KB/s  ]   Подробная статистика пиров
 
   
 
 

fAaron ®

Пол:
Не указан
Стаж:
7 дней
Сообщений:
77

Тараканы! - Larger Than… LIVE 25th Anniversary Show -Страна: Россия
Жанр: Punk Rock
Продолжительность: 01:30:36 + Bonus 00:12:30
Год выпуска: 2017
Лейбл: SOYUZ MUSIC
Источник: Материал предоставил Ассоник-Описание: 5, 6, 7 и 8 марта 2016 года в главном московском клубе YOTASPACE состоялась серия больших праздничных концертов, посвященных 25-летнему Юбилею московской группы «Тараканы!».
Каждый из четырех концертов отличался от остальных: музыканты «Тараканов!» подготовили четыре разных сет-листа, на каждом концерте были заявлены своя группа разогрева и специальные гости.
В праздновании 25-летнего юбилея «Тараканов!» участвовали Евгений Хавтан («Браво»), Сергей Метель («Смех»), Илья Никитин («Порт 812» / «Маррадёры»), группы «Порнофильмы», «Кирпичи», 7000$, Anacondaz, #####, Louna, «Элизиум», музыканты групп «Ульи», «Пляж», «Тени Свободы», «4 Апреля», Kerosin, Not Single Break, «Операция Пластилин» и многие другие.
В новый релиз вошли все самые лучшие моменты этих юбилейных концертов. Если вас там не было, то вы сможете полностью ощутить царившую там атмосферу. А если вы были – то сможете пережить эти замечательные несколько часов заново!-Треклист:
01. Четыре таракана
02. Мальчики-танчики
03. Мне плохо с утра feat. Distemper
04. Отличные парни
05. Улица Свободы feat. Дима Сокол (Йорш) / Алексей Митин (Hopes & Disasters)
06. 365 дней
07. Границы гетто feat. 4 Апреля / Agitators
08. FM молчит feat. Алексей Соловьев и Дмитрий Кежватов
09. Я не верю feat. Алексей Соловьев и Дмитрий Кежватов
10. Анестезия feat. Алексей Соловьев и Дмитрий Кежватов
11. Украл? Выпил?! В тюрьму!!! feat. Siberian Meat Grinder
12. Реальный панк? feat. Siberian Meat Grinder
13. Собачье сердце
14. Верните XTC на танцпол
15. Плохие танцоры
16. 2 по 100
17. Крыса feat. The Zapoy!
18. Кто-то из нас двоих
19. Спасибо тебе
20. 5 слов feat. Лусинэ Геворкян
21. Самый счастливый человек на Земле feat. Anacondaz
22. Сколько денег у Бога feat. Not Single Break!
23. Просто сделать это feat. Monkey Business
24. Плохой, хороший, злой feat. Евгений Хавтан
25. Я смотрю на них feat. Тэм
26. Тишина — это смерть feat. Тэм / Louna
Bonus:
27. Панк-рок песня
28. Поезд в сторону Арбатской
29. Много телок и пива
Разбивка на главы по трекам: есть
Качество : DVD5
Формат: DVD video
Видео кодек: MPEG2
Аудио кодек: AC3
Видео: MPEG Video 720x576 5 490 Kbps 25.00fps
Аудио: AC-3 384 kbps 48000 kHz 2 ch

MI

General
Complete name : D:\Rutracker\Тараканы!-Larger Than… LIVE 25th Anniversary Show (2017) DVD5\VIDEO_TS\VTS_02_1.VOB
Format : MPEG-PS
File size : 1 000 MiB
Duration : 23mn 19s
Overall bit rate mode : Variable
Overall bit rate : 5 994 Kbps
Video
ID : 224 (0xE0)
Format : MPEG Video
Format version : Version 2
Format profile : Main@Main
Format settings, BVOP : Yes
Format settings, Matrix : Custom
Format settings, GOP : M=3, N=15
Duration : 23mn 19s
Bit rate mode : Variable
Bit rate : 5 490 Kbps
Maximum bit rate : 8 000 Kbps
Width : 720 pixels
Height : 576 pixels
Display aspect ratio : 16:9
Frame rate : 25.000 fps
Standard : PAL
Color space : YUV
Chroma subsampling : 4:2:0
Bit depth : 8 bits
Scan type : Progressive
Compression mode : Lossy
Bits/(Pixel*Frame) : 0.530
Time code of first frame : 00:00:00:00
Time code source : Group of pictures header
GOP, Open/Closed : Open
GOP, Open/Closed of first f : Closed
Stream size : 916 MiB (92%)
Audio
ID : 189 (0xBD)-128 (0x80)
Format : AC-3
Format/Info : Audio Coding 3
Mode extension : CM (complete main)
Format settings, Endianness : Big
Muxing mode : DVD-Video
Duration : 23mn 19s
Bit rate mode : Constant
Bit rate : 384 Kbps
Channel(s) : 2 channels
Channel positions : Front: L R
Sampling rate : 48.0 KHz
Compression mode : Lossy
Stream size : 64.1 MiB (6%)
Menu

Скриншоты меню

Скриншоты


Bonus:
[cybertorrent.ru].t20721.torrent 
Торрент: Зарегистрирован [ 2018-02-22 06:20 ] · 2638E8435C665BD61C704959A24FAD5C5F50F18F

Скачать .torrent

Скачать

23 KB

Статус: проверено
Скачан: 0 раз
Размер: 4,31 GB
terms.php
Профиль [ЛС]
Показать сообщения:    

Текущее время: 25-Фев 15:50

Часовой пояс: UTC ± 0



Вы не можете начинать темы
Вы не можете отвечать на сообщения
Вы не можете редактировать свои сообщения
Вы не можете удалять свои сообщения
Вы не можете голосовать в опросах
Вы не можете прикреплять файлы к сообщениям
Вы можете скачивать файлы