Статистика раздачи
Размер:  31,09 GB   |    Зарегистрирован:  6 дней   |    Скачан:  0 раз

Полного источника не было: Никогда

 
   
 
 

Slivka ®

Пол:
Не указан
Стаж:
9 дней
Сообщений:
129

Место Преступления: Майами / CSI: Miami
Год выпуска: 2003
Страна: США
Жанр: Драма, детектив, триллер
Продолжительность: ~ 00:43:00
Перевод: профессиональный многоголосый закадровый
Русские субтитры: нет
Режиссёр: Энн Донахью, Кэрол Мендельсон, Энтони Е. Цукер
В ролях: Дэвид Карузо, Эмили Проктер, Адам Родригез, Канди Александр, Рори Кокрейн, София Милош и др.
Описание: Ласковое море, безоблачное небо, яркое солнце, белоснежный песок, шелест пальм и крики чаек… Это – рай на земле. Это – Майами. Но даже здесь порой совершаются преступления, пугающие своей жестокостью. Даже здесь полиция порой бывает бессильна. Именно поэтому на территории одного из самых красивых уголков планеты работает непревзойдённая команда профессионалов-криминалистов во главе со специалистом по раскрытию убийств Горацио Кейном. Они молоды, красивы и умны, но главное – они лучше всех способны разобраться даже в самых запутанных преступлениях. Вместе они словно из небытия достают улики и анализируют их при помощи самых современных методов. Вместе они карают тех, кто совершает странные и страшные преступления. Вместе они ищут разгадку и всегда находят её. Потому что они – лучшие в своём деле.
Ссылка на предыдущие и альтернативные раздачи
Сэмпл
Качество: WEB-DL 720p
Формат: MKV
Видео кодек: AVC
Аудио кодек: AC3
Видео: 1280x720 (1.778), 23.976 fps, ~ 3900 Kbps, 0.180 bit/pixel
Аудио: AC-3 192 Kbps, 2 channels, 48.0 KHz / ДТВ /
Аудио 2: AC-3 192 Kbps, 2 channels, 48.0 KHz / Оригинал /

MI

General
Complete name : D:\Torrent\Serials\Место преступления Майами\CSI Miami S02 720p\CSI.Miami.S02E01.rus(DTV).eng.720p.web-dl Blood Brothers.mkv
Format : Matroska
File size : 1.32 GiB
Duration : 42mn 30s
Overall bit rate : 4 461 Kbps
Encoded date : UTC 2011-10-04 02:42:20
Writing application : mkvmerge v5.0.0 ('Die Wahre Liebe') built on Sep 25 2011 20:33:49
Writing library : libebml v1.2.2 + libmatroska v1.3.0
Video
ID : 1
Format : AVC
Format/Info : Advanced Video Codec
Format profile : Main@L3.1
Format settings, CABAC : No
Format settings, ReFrames : 2 frames
Codec ID : V_MPEG4/ISO/AVC
Duration : 42mn 30s
Bit rate mode : Variable
Bit rate : 3 988 Kbps
Width : 1 280 pixels
Height : 720 pixels
Display aspect ratio : 16:9
Frame rate : 23.976 fps
Color space : YUV
Chroma subsampling : 4:2:0
Bit depth : 8 bits
Scan type : Progressive
Bits/(Pixel*Frame) : 0.180
Stream size : 1.18 GiB (89%)
Language : English
Color primaries : BT.709-5, BT.1361, IEC 61966-2-4, SMPTE RP177
Transfer characteristics : BT.709-5, BT.1361
Matrix coefficients : BT.709-5, BT.1361, IEC 61966-2-4 709, SMPTE RP177
Audio #1
ID : 2
Format : AC-3
Format/Info : Audio Coding 3
Mode extension : CM (complete main)
Codec ID : A_AC3
Duration : 42mn 30s
Bit rate mode : Constant
Bit rate : 192 Kbps
Channel(s) : 2 channels
Channel positions : Front: L R
Sampling rate : 48.0 KHz
Bit depth : 16 bits
Stream size : 58.4 MiB (4%)
Title : DTV
Language : Russian
Audio #2
ID : 3
Format : AC-3
Format/Info : Audio Coding 3
Mode extension : CM (complete main)
Codec ID : A_AC3
Duration : 42mn 30s
Bit rate mode : Constant
Bit rate : 192 Kbps
Channel(s) : 2 channels
Channel positions : Front: L R
Sampling rate : 48.0 KHz
Bit depth : 16 bits
Stream size : 58.4 MiB (4%)
Language : English
[cybertorrent.ru].t7816.torrent 
Торрент: Зарегистрирован [ 2018-02-18 23:20 ] · 20A3C26E079C62DC9612130F1B0805383E9DA2C0

Скачать .torrent

Скачать

158 KB

Статус: проверено
Скачан: 0 раз
Размер: 31,09 GB
terms.php
Профиль [ЛС]
Показать сообщения:    

Текущее время: 25-Фев 15:55

Часовой пояс: UTC ± 0



Вы не можете начинать темы
Вы не можете отвечать на сообщения
Вы не можете редактировать свои сообщения
Вы не можете удалять свои сообщения
Вы не можете голосовать в опросах
Вы не можете прикреплять файлы к сообщениям
Вы можете скачивать файлы