Статистика раздачи
Размер:  29,15 GB   |    Зарегистрирован:  3 месяца 6 дней   |    Скачан:  0 раз

Полного источника не было: Никогда

 
   
 
 

O_O ®

Пол:
Не указан
Стаж:
3 месяца 9 дней
Сообщений:
223

Декстер / Dexter





Год выпуска: 2008
Страна: США
Жанр: драма, криминал, триллер
Продолжительность: ~53 мин
Перевод: Профессиональный многоголосый закадровый NovaFiLM
Перевод 2: Профессиональный многоголосый закадровый FoxCrime
Субтитры: Русские (NovaFilm), Английские
Режиссёр: Маркос Сига (Marcos Siega), Тим Хантер (Tim Hunter), Кит Гордон (Keith Gordon)
В ролях: Майкл Холл, Джули Бенц, Дженифер Карпентер, Эрик Кинг, Лорен Велез, Дэвид Зайяс, Джеймс Ремар, Кристина Робинсон, Дэниэл Голдман
Описание: Я - Декстер. Декстер Морган. Я работаю судмедэкспертом в полиции Майами. Я не понимаю любви, мне безразличен секс, и у меня нет чувств. А еще я серийный убийца.
Мой отец был полицейским, и прекрасно обучил меня прятать улики. Обычным гражданам не стоит меня бояться, я убиваю только преступников, подонков, до которых почему-либо не смогла или не захотела добраться полиция. Я убиваю их, аккуратно распиливаю на части, и избавляюсь от трупов. Убийство для меня - творческий акт, искусство.
Но однажды... В Майами появляется некто, равный мне. Даже превзошедший меня. Сумевший меня заинтересовать. Предложивший мне своего рода товарищеское состязание. Кто этот загадочный и неуловимый "икс"..?
Ссылка на предыдущие и альтернативные раздачи: DEXTER
Сэмпл: http://yadi.sk/d/45rIHVZo5pqce
Качество: BDRip 720p
Формат: MKV
Видео кодек: H.264
Аудио кодек: AC3
Видео: H.264, 1280x720, 23.976 fps, 5220 kbps, 0.25 bit/pixel
Аудио: Русский, NovaFiLM AC3 5.1 48.0 KHz, 448 kbps
Аудио 2: Русский, FoxCrime AC3 2.0 48.0 KHz, 192 kbps
Аудио 3: English AC3 48.0 KHz, 5.1 ch 448 kbps

Описание эпизодов

Эпизод 3.01. Our Father / Отче наш
Декстер охотится за убийцей-наркодилером Фредом «Фрибо» Боуэном, но вместо этого убивает в его коттедже незнакомца, который оказывается Оскаром Прадо, братом Мигеля Прадо, помощника окружного прокурора и старого друга лейтенанта ЛаГуэрты. К Дебре обращается Юки Амадо из отдела внутренних расследований с просьбой проследить за Куинном, её новым напарником. Куинн направляет Дебру к своему информатору Антону Бриггсу. В парке находят задушенную девушку со срезанным куском кожи. Декстер никому не говорит, что это девушка Фрибо. Рита понимает, что беременна.-Эпизод 3.02. Finding Freebo / В поисках Фрибо
Декстер продолжает поиски «Фрибо». перед Декстером и Ритой встаёт непростая задача: решить, что делать с их будущим ребёнком.-Эпизод 3.03. The Lion Sleeps Tonight / Сегодня лев спит
Декстер пытается убедить полицейских, что новый труп был убит не «Фрибо», а кем-то другим. В супермаркете Декстер видит, как к Астор пристает педофил. Теперь он должен принять решение, как ему поступить.-Эпизод 3.04. All In The Family / Дела Семейные
Декстер делает неудачное предложение Рите. Он просит Мигеля научить его, как правильно сделать предложение руки и сердца. Рамон пытается любыми способами разыскать убийцу своего брата. Тем временем ЛаГуэрта идёт на сделку с адвокатом и приносит показания, которые помогут Чики Хайнсу, посаженному Мигелем, выйти на свободу.-Эпизод 3.05. Turning Biminese / Курс на Бимини
Рита предлагает Декстеру продать её дом и его квартиру, и купить дом побольше. Дебра чувствует, что с Антоном её сближает не только расследование. Полиция обнаружила третий труп «мясника», на помощь в расследовании им присылают шерифа — Рамона Прадо. Мигель понял, кто такой Декстер на самом деле и предложил ему свою помощь.-Эпизод 3.06. Si se puede / Да, я справлюсь
Декстер и Мигель всё больше сближаются. Найден четвёртый труп «мясника». Все трупы так или иначе связаны с «Фрибо». Дебра поняла, что убийца идёт по следам её расследования и подозревает, что маньяк, убивающий свидетелей — Рамон. Мигель помогает Декстеру подобраться к очередной жертве.-Эпизод 3.07. Easy as Pie / Проще простого
Рамону предъявлены обвинения в похищении человека и пытках. Однако он не тот маньяк, который нужен полиции. Его отстраняют от расследования. Дебра предупреждает Антона, что его хотят использовать в качестве наживки для поимки «мясника». Мигель предлагает Декстеру убить адвоката по делу Чики Хайнса — Эллен Вульф. Камилла просит Декстера об эвтаназии. Декстеру придётся сделать непростой выбор.-Эпизод 3.08. The Damage a Man Can Do / Ущерб, который может причинить человек
Дружба Декстера и Мигеля крепнет, опасно крепнет, крепнет настолько, что Мигель изъявляет желание совершить следующее убийство самостоятельно.-Эпизод 3.09. About Last Night / О последней ночи
Декстер узнает, что Мигель задумал действовать в одиночку и совершил собственное убийство.-Эпизод 3.10. Go Your Own Way / Иди своей дорогой
Декстеру нужно преимущество над Мигелем, и он его находит — кольцо Эллен Вульф, взятое в качестве трофея.-Эпизод 3.11. I Had a Dream / Мне снился сон
Декстер знает, что Мария подозревает Мигеля в убийстве Эллен Вульф. Он должен что-то сделать, пока Мигель не занялся Марией.-Эпизод 3.12. Do You Take Dexter Morgan? / Берешь ли ты Декстера Моргана?
День свадьбы приближается, а Декстер все еще не разобрался с Рамоном. «Мясник» все еще на свободе и Декстер — его следующая жертва.

MI

Общее
Уникальный идентификатор : 206945978195775413442081135505543314125 (0x9BB0587B0FD703F49BA91430C45CBACD)
Полное имя : H:\трекер\Dexter.s3.BDRip.720p\Dexter.s03e01.Our.Father.mkv
Формат : Matroska
Версия формата : Version 4 / Version 2
Размер файла : 2,69 Гбайт
Продолжительность : 58 м.
Общий поток : 6616 Кбит/сек
Название фильма : Dexter.s03e01.Our.Father (BDRip 720p) -B@ZILI0-
Дата кодирования : UTC 2013-06-15 07:58:23
Программа кодирования : mkvmerge v6.2.0 ('Promised Land') built on Apr 28 2013 12:22:01
Библиотека кодирования : libebml v1.3.0 + libmatroska v1.4.0
Attachment : Yes / Yes
Видео
Идентификатор : 1
Формат : AVC
Формат/Информация : Advanced Video Codec
Профиль формата : High@L4.0
Параметр CABAC формата : Да
Параметр ReFrames формата : 9 кадров
Идентификатор кодека : V_MPEG4/ISO/AVC
Продолжительность : 58 м.
Битрейт : 5521 Кбит/сек
Ширина : 1280 пикселей
Высота : 720 пикселей
Соотношение сторон : 16:9
Режим частоты кадров : Постоянный
Частота кадров : 23,976 кадра/сек
Цветовое пространство : YUV
Субдискретизация насыщенности : 4:2:0
Битовая глубина : 8 бит
Тип развёртки : Прогрессивная
Бит/(Пиксели*Кадры) : 0.250
Размер потока : 2,19 Гбайт (82%)
Заголовок : Dexter.s03e01.Our.Father (BDRip 720p) -B@ZILI0-
Библиотека кодирования : x264 core 125 r2200 999b753
Настройки программы : cabac=1 / ref=9 / deblock=1:-2:-2 / analyse=0x3:0x133 / me=umh / subme=11 / psy=1 / psy_rd=1.00:0.15 / mixed_ref=1 / me_range=32 / chroma_me=1 / trellis=2 / 8x8dct=1 / cqm=0 / deadzone=21,11 / fast_pskip=0 / chroma_qp_offset=-3 / threads=6 / lookahead_threads=1 / sliced_threads=0 / nr=0 / decimate=1 / interlaced=0 / bluray_compat=0 / constrained_intra=0 / bframes=10 / b_pyramid=2 / b_adapt=2 / b_bias=0 / direct=3 / weightb=1 / open_gop=0 / weightp=2 / keyint=240 / keyint_min=23 / scenecut=40 / intra_refresh=0 / rc=2pass / mbtree=0 / bitrate=5521 / ratetol=1.0 / qcomp=0.60 / qpmin=0 / qpmax=69 / qpstep=4 / cplxblur=20.0 / qblur=0.5 / ip_ratio=1.40 / pb_ratio=1.30 / aq=1:1.00
Язык : English
Default : Да
Forced : Нет
Аудио #1
Идентификатор : 2
Формат : AC-3
Формат/Информация : Audio Coding 3
Расширение режима : CM (complete main)
Параметр Endianness формата : Big
Идентификатор кодека : A_AC3
Продолжительность : 58 м.
Вид битрейта : Постоянный
Битрейт : 448 Кбит/сек
Каналы : 6 каналов
Расположение каналов : Front: L C R, Side: L R, LFE
Частота : 48,0 КГц
Битовая глубина : 16 бит
Метод сжатия : С потерями
Размер потока : 186 Мбайт (7%)
Заголовок : NovaFilm AC3 5.1 448 Kbps
Язык : Russian
Default : Да
Forced : Нет
Аудио #2
Идентификатор : 3
Формат : AC-3
Формат/Информация : Audio Coding 3
Расширение режима : CM (complete main)
Параметр Endianness формата : Big
Идентификатор кодека : A_AC3
Продолжительность : 58 м.
Вид битрейта : Постоянный
Битрейт : 192 Кбит/сек
Каналы : 2 канала
Расположение каналов : Front: L R
Частота : 48,0 КГц
Битовая глубина : 16 бит
Метод сжатия : С потерями
Размер потока : 79,9 Мбайт (3%)
Заголовок : FoxCrime
Язык : Russian
Default : Нет
Forced : Нет
Аудио #3
Идентификатор : 4
Формат : AC-3
Формат/Информация : Audio Coding 3
Расширение режима : CM (complete main)
Параметр Endianness формата : Big
Идентификатор кодека : A_AC3
Продолжительность : 58 м.
Вид битрейта : Постоянный
Битрейт : 448 Кбит/сек
Каналы : 6 каналов
Расположение каналов : Front: L C R, Side: L R, LFE
Частота : 48,0 КГц
Битовая глубина : 16 бит
Метод сжатия : С потерями
Размер потока : 186 Мбайт (7%)
Заголовок : Original AC3 5.1 448 Kbps
Язык : English
Default : Нет
Forced : Нет
Текст #1
Идентификатор : 5
Формат : UTF-8
Идентификатор кодека : S_TEXT/UTF8
Идентификатор кодека/Информация : UTF-8 Plain Text
Язык : Russian
Default : Нет
Forced : Нет
Текст #2
Идентификатор : 6
Формат : UTF-8
Идентификатор кодека : S_TEXT/UTF8
Идентификатор кодека/Информация : UTF-8 Plain Text
Язык : English
Default : Нет
Forced : Нет

Скриншоты

15.06.13 заменены дорожки английские и русские от новы на более качественные
[cybertorrent.ru].t8057.torrent 
Торрент: Зарегистрирован [ 2018-02-18 23:20 ] · 6530F757E5F6FDB86EE233E9F7B0A4E05700E768

Скачать .torrent

Скачать

74 KB

Статус: проверено
Скачан: 0 раз
Размер: 29,15 GB
Профиль [ЛС]
Показать сообщения:    

Текущее время: 25-Май 10:48

Часовой пояс: UTC ± 0



Вы не можете начинать темы
Вы не можете отвечать на сообщения
Вы не можете редактировать свои сообщения
Вы не можете удалять свои сообщения
Вы не можете голосовать в опросах
Вы не можете прикреплять файлы к сообщениям
Вы можете скачивать файлы