Статистика раздачи
Размер:  4,22 GB   |    Зарегистрирован:  10 дней   |    Скачан:  0 раз

Полного источника не было: Никогда

Личеров:  6  [  0 KB/s  ]   Подробная статистика пиров
 
   
 
 

lopster ®

Пол:
Не указан
Стаж:
10 дней
Сообщений:
585

Лесное озеро
Страна: Россия
Студия: Golden Key Entertainment, Кинокомпания "Русское", студия "Кей Арт"
Жанр: Мелодрама
Год выпуска: 2012
Продолжительность: 01:27:43
Перевод: Не требуется
Субтитры: нет
Оригинальная аудио дорожка: Русский
Режиссёр: Станислав Мареев
В ролях: Виктория Толстоганова, Андрей Биланов, Дмитрий Харатьян, Лариса Лужина, София Игнатова, Марианна Шульц, Сергей Неудачин, Матвей Зубалевич, Елена Антипова, Иван Дубровский
Описание: Они не знали о существовании друг друга. Но встреча в сельской глуши на лесном озере перевернула всю их жизнь. Теперь они не могут друг без друга. Чистая и прозрачная вода озера очистила и души и тело… Да и что может быть приятнее что бы в жаркий летний день искупаться в освежающих водах природного озерца.
Доп. информация:
Автор релиза -
Источник аудио и видео - HDTV 1080i TS - моя запись с канала Россия-1 HD


Сэмпл: https://yadi.sk/i/6iTHe5I_3KqX2i
Рекламы нет!
Качество видео: HDTV 1080i
Формат видео: TS
Видео: MPEG-4, 1920x1080 (16:9), 25.000 fps, 6351 kbps, 0.123 bit/pixel
Аудио 1: Русский MP2, 48000 Гц, 2ch, 192 kbps

MediaInfo

Общее
Идентификатор : 1 (0x1)
Полное имя : D:\Лесное.озеро.2012.HDTV.1080i-ylnian.ts
Формат : MPEG-TS
Размер файла : 4,22 Гбайт
Продолжительность : 1 ч. 27 м.
Режим общего битрейта : Переменный
Общий поток : 6885 Кбит/сек
Видео
Идентификатор : 1178 (0x49A)
Идентификатор меню : 1138 (0x472)
Формат : AVC
Формат/Информация : Advanced Video Codec
Профиль формата : High@L4
Параметр CABAC формата : Да
Параметр ReFrames формата : 4 кадра
Идентификатор кодека : 27
Продолжительность : 1 ч. 27 м.
Битрейт : 6351 Кбит/сек
Ширина : 1920 пикселей
Высота : 1080 пикселей
Соотношение сторон : 16:9
Частота кадров : 25,000 кадров/сек
Стандарт вещания : Component
Цветовое пространство : YUV
Субдискретизация насыщенности : 4:2:0
Битовая глубина : 8 бит
Тип развёртки : Чересстрочная
Метод сохранения типа развёртки : Раздельные поля
Порядок развёртки : Верхнее поле первое
Бит/(Пиксели*Кадры) : 0.123
Размер потока : 3,89 Гбайт (92%)
Цветовой диапазон : Limited
Основные цвета : BT.709
Характеристики трансфера : BT.709
Коэффициенты матрицы : BT.709
Аудио
Идентификатор : 1179 (0x49B)
Идентификатор меню : 1138 (0x472)
Формат : MPEG Audio
Версия формата : Version 1
Профиль формата : Layer 2
Идентификатор кодека : 3
Продолжительность : 1 ч. 27 м.
Вид битрейта : Постоянный
Битрейт : 192 Кбит/сек
Каналы : 2 канала
Частота : 48,0 КГц
Метод сжатия : С потерями
Задержка видео : -40 мс.
Размер потока : 120 Мбайт (3%)
Язык : Russian
[cybertorrent.ru].t333.torrent 
Торрент: Зарегистрирован [ 2018-02-15 15:48 ] · ACAFF336F7ED5957FB95AB6D289C4A54A1DDB0EA

Скачать .torrent

Скачать

22 KB

Статус: проверено
Скачан: 0 раз
Размер: 4,22 GB
terms.php
Профиль [ЛС]
Показать сообщения:    

Текущее время: 25-Фев 15:53

Часовой пояс: UTC ± 0



Вы не можете начинать темы
Вы не можете отвечать на сообщения
Вы не можете редактировать свои сообщения
Вы не можете удалять свои сообщения
Вы не можете голосовать в опросах
Вы не можете прикреплять файлы к сообщениям
Вы можете скачивать файлы