Статистика раздачи
Размер:  49,2 GB   |    Зарегистрирован:  3 месяца 9 дней   |    Скачан:  0 раз

Полного источника не было: Никогда

Личеров:  6  [  0 KB/s  ]  
 
   
 
 

Jana ®

Пол:
Не указан
Стаж:
3 месяца 11 дней
Сообщений:
553

Менталист Сезон 2 / The Mentalist
Год выпуска: 2009
Страна: США
Жанр: драма, криминал
Продолжительность: 43 мин.
Перевод 1: Любительский двухголосый 1001 cinema & Gravi-TV сэмпл
(Перевод: svepok99
Редактура: svepok99
Озвучка: ChrisTref, kiitos)
Перевод 2 (только первая серия): Любительский одноголосый
(Озвучка: yuraflash)
Русские субтитры: нет
Режиссер: Крис Лонг
В ролях:
Саймон Бейкер, Робин Танни, Аманда Риджетти, Тим Кенг, Овайн Йомен, Грегори Итцин
Описание:
Патрик Джейн — детектив и независимый консультант из Калифорнийского Бюро Расследований (КБР), он использует свои отточенные, как лезвие, навыки наблюдения для раскрытия тяжких преступлений. В самом Бюро Джейн известен за частые нарушения протокола, а также за его звездное прошлое: он работал медиумом, однако теперь сам признает, что симулировал паранормальные способности. Роль Джейна в раскрытии целой серии загадочных преступлений высоко ценится коллегами. Но суровый старший агент Тереза Лисбон против того, чтоб Джейн работал с ее отрядом, и то вынужденно признает его успехи, то критикует его за театральность, нарциссизм и отсутствие границ.
Качество: HDTV
Формат: MKV
Видео кодек: x264

скрытый текст

серия 1:
x264 [info]: slice I:825 Avg QP:16.06 size:123118
x264 [info]: slice P:34864 Avg QP:18.37 size: 51250
x264 [info]: slice B:26393 Avg QP:20.08 size: 20415
серия 2:
x264 [info]: slice I:803 Avg QP:17.03 size:114714
x264 [info]: slice P:37647 Avg QP:19.53 size: 49898
x264 [info]: slice B:23642 Avg QP:21.65 size: 19331
серия 3:
x264 [info]: slice I:848 Avg QP:15.22 size:107528
x264 [info]: slice P:37955 Avg QP:17.40 size: 48991
x264 [info]: slice B:22296 Avg QP:18.88 size: 19661
4
x264 [info]: slice I:841 Avg QP:16.90 size:106286
x264 [info]: slice P:37006 Avg QP:19.55 size: 47721
x264 [info]: slice B:22501 Avg QP:21.13 size: 18209
5
x264 [info]: frame I:687 Avg QP:14.75 size:123081
x264 [info]: frame P:38220 Avg QP:17.28 size: 45563
x264 [info]: frame B:23227 Avg QP:18.55 size: 21777
Аудио кодек: AC3
Видео: 1536x864 (1600x900 - только серия 1), x264, ~24 fps, ~7200 kbps (серии 11-20: 4.5-7 Mbit)
Аудио 1 (русская) 1001 cinema & Gravi-TV: AC3 2.0, 192 kbit/s
Аудио 1 (русская) yuraflash: AC3 2.0, 192 kbit/s (только серия 1)
Аудио 2 (английская): Ac3 5.1, 384 kbit/s

Скриншоты




Скриншоты 2



mediainfo

General
Complete name : The_Mentalist_s02e02_The_Scarlet_Letter.mkv
Format : Matroska
File size : 2.44 GiB
Duration : 43mn 9s
Overall bit rate : 8 077 Kbps
Encoded date : UTC 2009-10-26 08:38:43
Writing application : mkvmerge v2.9.5 ('Tu es le seul') built on Jun 7 2009 11:07:07
Writing library : libebml v0.7.7 + libmatroska v0.8.1
Video
ID : 1
Format : AVC
Format/Info : Advanced Video Codec
Format profile : High@L4.1
Format settings, CABAC : Yes
Format settings, ReFrames : 4 frames
Muxing mode : Container profile=Unknown@4.1
Codec ID : V_MPEG4/ISO/AVC
Duration : 43mn 9s
Bit rate : 7 500 Kbps
Width : 1 536 pixels
Height : 864 pixels
Display aspect ratio : 16:9
Frame rate : 23.976 fps
Color space : YUV
Chroma subsampling : 4:2:0
Bit depth : 8 bits
Scan type : Progressive
Bits/(Pixel*Frame) : 0.236
Stream size : 2.21 GiB (91%)
Writing library : x264 core 67 r1169M ab85c9b
Encoding settings : cabac=1 / ref=4 / deblock=1:-1:-1 / analyse=0x3:0x113 / me=umh / subme=9 / psy_rd=1.0:0.0 / mixed_ref=1 / me_range=16 / chroma_me=1 / trellis=0 / 8x8dct=1 / cqm=0 / deadzone=21,11 / chroma_qp_offset=-2 / threads=6 / nr=0 / decimate=1 / mbaff=0 / bframes=4 / b_pyramid=1 / b_adapt=1 / b_bias=0 / direct=3 / wpredb=0 / keyint=240 / keyint_min=24 / scenecut=40 / rc=2pass / bitrate=7500 / ratetol=1.0 / qcomp=0.60 / qpmin=10 / qpmax=51 / qpstep=4 / cplxblur=20.0 / qblur=0.5 / vbv_maxrate=50000 / vbv_bufsize=50000 / ip_ratio=1.40 / pb_ratio=1.30 / aq=1:1.00
Language : English
Audio #1
ID : 2
Format : AC-3
Format/Info : Audio Coding 3
Format profile : Dolby Digital
Mode extension : CM (complete main)
Codec ID : A_AC3
Duration : 43mn 9s
Bit rate mode : Constant
Bit rate : 192 Kbps
Channel(s) : 2 channels
Channel positions : Front: L R
Sampling rate : 48.0 KHz
Bit depth : 16 bits
Video delay : 32ms
Stream size : 59.3 MiB (2%)
Language : Russian
Audio #2
ID : 3
Format : AC-3
Format/Info : Audio Coding 3
Mode extension : CM (complete main)
Codec ID : A_AC3
Duration : 43mn 9s
Bit rate mode : Constant
Bit rate : 384 Kbps
Channel(s) : 6 channels
Channel positions : Front: L C R, Side: L R, LFE
Sampling rate : 48.0 KHz
Bit depth : 16 bits
Video delay : 32ms
Stream size : 119 MiB (5%)
Language : English
Все раздачи
[cybertorrent.ru].t7544.torrent 
Торрент: Зарегистрирован [ 2018-02-18 15:00 ] · BEDA01F780BCAA1711CE88B27E70038192AB1DAE

Скачать .torrent

Скачать

248 KB

Статус: проверено
Скачан: 0 раз
Размер: 49,2 GB
Профиль [ЛС]
Показать сообщения:    

Текущее время: 28-Май 05:13

Часовой пояс: UTC ± 0



Вы не можете начинать темы
Вы не можете отвечать на сообщения
Вы не можете редактировать свои сообщения
Вы не можете удалять свои сообщения
Вы не можете голосовать в опросах
Вы не можете прикреплять файлы к сообщениям
Вы можете скачивать файлы