Статистика раздачи
Размер:  23,99 GB   |    Зарегистрирован:  3 месяца 1 день   |    Скачан:  0 раз

Полного источника не было: Никогда

 
   
 
 

fox ®

Пол:
Не указан
Стаж:
3 месяца 4 дня
Сообщений:
221

След (Серии 672 - 729)
Год выпуска: 2011
Производство: ООО «ТелеРОМАН» (Россия)
Жанр: Детектив
Продолжительность: ~ 31 мин.
Режиссёр: Юрий Харнас
В ролях: Ольга Копосова, Владимир Ташлыков, Павел Шуваев, Георгий Тесля-Герасимов, Андрей Лавров, Анна Данькова, Сергей Пиоро, Евгений Кулаков, Анастасия Гулимова, Олег Валкман, Станислав Эрклиевский, Нина Гогаева, Руслан Сасин, Сергей Коваленко, Владислав Маленко
Описание: Идеальных преступлений не бывает. После каждого остаются следы. Иногда эти следы бросаются в глаза. Иногда их можно найти только с помощью специальных приборов. Федеральная Экспертная служба - это уникальная лаборатория, которая объединяет несколько экспертных служб в одну и отвечает за проведение исследований во всех мыслимых областях прикладной криминалистики, будь то химическая, биологическая, медицинская экспертиза или баллистика...

Названия серий


672 - Комариха
673 - Ничто не вечно
674 - Контакт
675 - Между двух огней
676 - Палата № 7
677 - Мужская дружба
678 - Нерядовой самоубийца
679 - Пропавший без вести
680 - Мечты
681 - Пёстрая лента
682 - Чужая пуля
683 - Ветеринар
684 - Женщина в белом
685 - Братья
686 - Принц наизнанку
687 - Одиночество
688 - Диагноз: блондинка
689 - Смерть бандитам
690 - Непорочное зачатие
691 - Жадность
692 - Игры вампира
693 - Непорочное насилие
694 - Как снег на голову
695 - Три Солнца
696 - Улика внутри
697 - Карточный домик
698 - А ты такой холодный...
699 - Женщины. Универсальная отмычка
700 - Любитель блондинок
701 - Змеиный укус
702 - Жизнь без понтов
703 - Сковородка
704 - Добыча
705 - Защита свидетеля
706 - Добрые советы
707 - Право на доверие
708 - Беспроцентный кредит
709 - Прочти и умри
710 - Дворовый круг
711 - Кислород
712 - Натюрморт
713 - Квадрат Маляева
714 - Браконьер
715 - Тибетский нож
716 - Человек года
717 - Кукловод
718 - Пальцы
719 - Лёгкая нажива
720 - Дама с собачкой
721 - Рыцари серебра
722 - Любит – не любит
723 - Соседи
724 - Мафия в комнате
725 - Бетонный забор
726 - Психический яд
727 - Счастливчик
728 - Семейка А.
729 - Новый год
Как скачать отдельный файл или докачать пропущенные файлы
Все раздачи сериала
Качество: SATRip
Формат: AVI
Видео кодек: XviD
Аудио кодек: MP3
Видео: 704x400 (1.76:1), 25 fps, XviD build 50 ~1420 kbps avg, 0.20 bit/pixel
Аудио: 48 kHz, MPEG Layer 3, 2 ch, ~128.00 kbps avg

MediaInfo

Общее
Полное имя : C:\uTorrent\Sled_nikolodo\Sled.672.2011.XviD.SATRip.nikolodo.avi
Формат : AVI
Формат/Информация : Audio Video Interleave
Размер файла : 350 Мбайт
Продолжительность : 31 м.
Общий поток : 1558 Кбит/сек
Программа кодирования : VirtualDubMod 1.5.10.3 | www.virtualdub-fr.org || (build 2550/release)
Библиотека кодирования : VirtualDubMod build 2550/release
Видео
Идентификатор : 0
Формат : MPEG-4 Visual
Профиль формата : Advanced Simple@L5
Параметр BVOP формата : 2
Параметр QPel формата : Нет
Параметр GMC формата : Без точки перехода
Параметр матрицы формата : Default (MPEG)
Идентификатор кодека : XVID
Идентификатор кодека/Подсказка : XviD
Продолжительность : 31 м.
Битрейт : 1421 Кбит/сек
Ширина : 704 пикс.
Высота : 400 пикс.
Соотношение сторон : 16:9
Частота кадров : 25,000 кадр/сек
Цветовое пространство : YUV
Подвыборка цветности : 4:2:0
Битовая глубина : 8 бит
Тип развёртки : Прогрессивная
Метод сжатия : С потерями
Бит/(Пиксели*Кадры) : 0.202
Размер потока : 319 Мбайт (91%)
Библиотека кодирования : XviD 1.2.1 (UTC 2008-12-04)
Аудио
Идентификатор : 1
Формат : MPEG Audio
Версия формата : Version 1
Профиль формата : Layer 3
Идентификатор кодека : 55
Идентификатор кодека/Подсказка : MP3
Продолжительность : 31 м.
Вид битрейта : Постоянный
Битрейт : 128 Кбит/сек
Каналы : 2 канала
Частота : 48,0 КГц
Метод сжатия : С потерями
Размер потока : 28,8 Мбайт (8%)
Выравнивание : Соединение по промежуткам
Продолжительность промежутка : 40 мс. (1,00 видеокадр)
Время предзагрузки промежутка : 504 ms
Библиотека кодирования : LAME3.98r
Настройки программы : -m s -V 4 -q 0 -lowpass 17 -b 128

Скриншоты

[cybertorrent.ru].t7739.torrent 
Торрент: Зарегистрирован [ 2018-02-18 23:20 ] · 3E1C704C49C087635FAD05A8FA5C05E75E9F68A2

Скачать .torrent

Скачать

124 KB

Статус: проверено
Скачан: 0 раз
Размер: 23,99 GB
Профиль [ЛС]
Показать сообщения:    

Текущее время: 20-Май 19:50

Часовой пояс: UTC ± 0



Вы не можете начинать темы
Вы не можете отвечать на сообщения
Вы не можете редактировать свои сообщения
Вы не можете удалять свои сообщения
Вы не можете голосовать в опросах
Вы не можете прикреплять файлы к сообщениям
Вы можете скачивать файлы