Статистика раздачи
Размер:  17,01 GB   |    Зарегистрирован:  2 дня 17 часов   |    Скачан:  0 раз

Полного источника не было: Никогда

Личеров:  1  [  0 KB/s  ]   Подробная статистика пиров
 
   
 
 

duda ®

Пол:
Не указан
Стаж:
5 дней
Сообщений:
59

--Два с половинойчеловека / Two and a half Men-- Год выпуска: 2011
Страна: США | CBS
Жанр: комедия
Продолжительность: ~ 22 минуты
Перевод: Профессиональный (двухголосый, закадровый) - BBC Saint-Petersburg & LHS
Субтитры: Нет
Режиссёры: Ли Аронсон, Чак Лорри-В ролях: Джон Крайер, Энгус Т. Джонс, Эштон Катчер, Кончата Феррелл, Холланд Тейлор, Марин Хинкль, Мелани Лински, Дженнифер Бини Тейлор, Райан Стайлз, Эйприл Боулби и др.-Описание: Спустя восемь лет, после того как в особняке на побережье Малибу сумбурно поселился "свежеразведенный" бездомный Алан Харпер, не стало его брата - хозяина особняка, местного бабника и знатного алкоголика Чарли. Но ушли ли с ним приключения семейства Харперов? Вряд ли, т.к. новым хозяином шикарного жилища становится очень незаурядная личность - некий Уолден Шмидт.-Качество: WEB-DL 720p
Формат: MKV
Видео кодек: H.264
Аудио кодек: AC3
Видео: 1280x720 (16:9), 23.976 fps, ~4000 kbps, ~0.180 bit/pixel
Аудио Rus: 48 kHz, 3 ch, ~384 kbps |BBC Saint-Petersburg & LHS|
Аудио Eng: 48 kHz, 3 ch, ~384 kbps |Original|-Все раздачи сериала / Сэмпл / ImDB / Кинопоиск-

Скриншоты



MediaInfo

Общее
Уникальный идентификатор : 253580230630182234151936876835071998024 (0xBEC5C6A47F4C2BE48BE28C1AA8FE3848)
Полное имя : F:\Two.and.a.half.Men.s09.720p.WEB-DL.BBC.Spb&LHS\Two.and.a.Half.Men.S09E01.Nice to Meet You, Walden Schmidt.720p.WEB-DL.DD2.1.H.264-Rus.mkv
Формат : Matroska
Размер файла : 737 Мбайт
Продолжительность : 21 м.
Общий поток : 4797 Кбит/сек
Название фильма : Two and a Half Men S09E01 by TeddyBlue
Дата кодирования : UTC 2011-09-23 16:46:15
Программа кодирования : mkvmerge v4.5.0 ('Speed of Light') сборка от Feb 1 2011 02:10:32
Библиотека кодирования : libebml v1.2.0 + libmatroska v1.1.0
Видео
Идентификатор : 1
Формат : AVC
Формат/Информация : Advanced Video Codec
Профиль формата : High@L3.1
Параметр CABAC формата : Нет
Параметр ReFrames формата : 2 кадра
Идентификатор кодека : V_MPEG4/ISO/AVC
Продолжительность : 21 м.
Битрейт : 3933 Кбит/сек
Ширина : 1280 пикс.
Высота : 720 пикс.
Соотношение сторон : 16:9
Частота кадров : 23,976 кадр/сек
Цветовое пространство : YUV
Подвыборка цветности : 4:2:0
Битовая глубина : 8 бит
Тип развёртки : Прогрессивная
Бит/(Пиксели*Кадры) : 0.178
Размер потока : 605 Мбайт (82%)
Язык : English
Основные цвета : BT.709-5, BT.1361, IEC 61966-2-4, SMPTE RP177
Характеристики трансфера : BT.709-5, BT.1361
Коэффициенты матрицы : BT.709-5, BT.1361, IEC 61966-2-4 709, SMPTE RP177
Аудио #1
Идентификатор : 2
Формат : AC-3
Формат/Информация : Audio Coding 3
Расширение режима : CM (complete main)
Идентификатор кодека : A_AC3
Продолжительность : 21 м.
Вид битрейта : Постоянный
Битрейт : 384 Кбит/сек
Каналы : 3 канала
Расположение каналов : Front: L C R
Частота : 48,0 КГц
Битовая глубина : 16 бит
Метод сжатия : С потерями
Размер потока : 59,0 Мбайт (8%)
Заголовок : BBC Spb & LHS
Язык : Russian
Аудио #2
Идентификатор : 3
Формат : AC-3
Формат/Информация : Audio Coding 3
Расширение режима : CM (complete main)
Идентификатор кодека : A_AC3
Продолжительность : 21 м.
Вид битрейта : Постоянный
Битрейт : 384 Кбит/сек
Каналы : 3 канала
Расположение каналов : Front: L C R
Частота : 48,0 КГц
Битовая глубина : 16 бит
Метод сжатия : С потерями
Размер потока : 59,0 Мбайт (8%)
Заголовок : Original
Язык : English

Внимание! Раздача ведётся путём добавления новых серий.

Внимание! Раздача ведётся путём добавления новых серий; при каждом добавлении создётся новый торрент. Чтобы начать докачку новой серии, пользователям необходимо сделать следующее:
  • Остановить скачивание.
  • Удалить старый торрент у себя из клиента (старые серии удалять не надо).
  • Скачать новый торрент и запустить его у себя в клиенте вместо старого, при этом указать клиенту путь в старую папку куда и должно происходить скачивание новых серий.
    Ваш клиент при этом должен произвести хеширование (проверку) старой папки (если не производит сам - помогите ему сделать это), и будет докачивать только те серии которых у вас ещё нет. Старые серии при этом не удаляются, а продолжают раздаваться!
    Eсли вы уже удалили старые серии, то предотвратить повторную закачку старых серий можно, отжав галочку в соответсвующих местах при запуске нового торрента. По возможности, желательно не удалять старые серии как можно дольше чтобы релизёр не столько продолжал раздавать старые серии, а смог сконцентрироваться на новых.
    Как закачать отдельный файл из торрента или докачать ранее пропущенные файлы торрента!
  • [cybertorrent.ru].t7779.torrent 
    Торрент: Зарегистрирован [ 2018-02-18 23:20 ] · D306F4BAB2180076E9A8E57406AF23EF55A2888D

    Скачать .torrent

    Скачать

    88 KB

    Статус: проверено
    Скачан: 0 раз
    Размер: 17,01 GB
    terms.php
    Профиль [ЛС]
    Показать сообщения:    

    Текущее время: 21-Фев 16:59

    Часовой пояс: UTC ± 0



    Вы не можете начинать темы
    Вы не можете отвечать на сообщения
    Вы не можете редактировать свои сообщения
    Вы не можете удалять свои сообщения
    Вы не можете голосовать в опросах
    Вы не можете прикреплять файлы к сообщениям
    Вы можете скачивать файлы