Статистика раздачи
Размер:  10,77 GB   |    Зарегистрирован:  3 месяца 1 день   |    Скачан:  0 раз

Полного источника не было: Никогда

 
   
 
 

Избранец ®

Пол:
Не указан
Стаж:
3 месяца 4 дня
Сообщений:
314

--Анатомия страсти /Анатомия Грей / Grey's Anatomy-- Год выпуска: 2011
Страна: США | ABC
Жанр: медицинская драма, комедия
Продолжительность: ~ 42 минуты
Перевод: Профессиональный (двухголосый, закадровый) - Кубик в кубе
Субтитры: Русские, Английские
Режиссёр: Роб Корн, Чандра Уилсон, Стивен Крегг, Том Верика и др.-В ролях: Эллен Помпео, Сандра О, Патрик Демпси, Джастин Чэмберс, Чандра Уилсон, Джеймс Пикенс мл., Сара Рамирез, Эрик Дэйн и др.-Описание: В центре событий — молодая женщина-хирург Мередит Грей, дочь известного врача Элли Грей. Она работает в городской больнице Сиэтла, и её коллеги, такие же начинающие врачи, как она. Хирурги оперируют и влюбляются, заводят истории болезни и служебные романы, хранят свои врачебные тайны, борются с осложнениями у пациентов и в собственной личной жизни. И зачастую отношения с противоположным полом волнуют их не меньше, чем вопрос приобретения ими профессионального опыта.-Качество: WEB-DLRip
Формат: AVI
Видео кодек: XviD
Аудио кодек: MP3
Видео: 624x352 (16:9), 23.976 fps, ~1200 kbps, ~0.230 bit/pixel
Аудио Rus: 48 kHz, 2 ch, ~128 kbps |Кубик в кубе|
Аудио Eng: 48 kHz, 2 ch, ~128 kbps |Original|-
Озвучка: Кубик в кубе
Перевод: Olyabusha, РГ "ЧП"
Работа со звуком: TranceWeLoveYou, markin scor
Рип: LegendKiev-Все раздачи сериала / Сэмпл / ImDB / Кинопоиск--

Список серий

  • Free Falling
  • She's Gone
  • Take the Lead
  • What Is It About Men
  • Love, Loss and Legacy
  • Poker Face
  • Put Me in, Coach
  • Heart-Shaped Box
  • Dark Was the Night
  • Suddenly
  • This Magic Moment
  • Hope for the Hopeless
  • If/Then
  • All You Need Is Love
  • Have You Seen Me Lately?
  • If Only You Were Lonely
  • One Step Too Far
  • The Lion Sleeps Tonight
  • Support System
  • The Girl with No Name
  • Moment of Truth
  • Let the Bad Times Roll
  • Migration
  • Flight
  • Скриншоты


    -

    MediaInfo

    Общее
    Полное имя : E:\Greys.Anatomy.s08.WEB-DLRip.Kybik.v.Kybe\Greys.Anatomy.s08e01.WEB-DLRip.Kybik.v.Kybe.avi
    Формат : AVI
    Формат/Информация : Audio Video Interleave
    Размер файла : 454 Мбайт
    Продолжительность : 43 м.
    Общий поток : 1470 Кбит/сек
    Программа кодирования : VirtualDubMod 1.5.10.2 (build 2540/release)
    Библиотека кодирования : VirtualDubMod build 2540/release
    Видео
    Идентификатор : 0
    Формат : MPEG-4 Visual
    Профиль формата : Advanced Simple@L5
    Параметр BVOP формата : 1
    Параметр QPel формата : Нет
    Параметр GMC формата : Без точки перехода
    Параметр матрицы формата : Выборочная
    Идентификатор кодека : XVID
    Идентификатор кодека/Подсказка : XviD
    Продолжительность : 43 м.
    Битрейт : 1200 Кбит/сек
    Ширина : 624 пикс.
    Высота : 352 пикс.
    Соотношение сторон : 16:9
    Частота кадров : 23,976 кадр/сек
    Цветовое пространство : YUV
    Подвыборка цветности : 4:2:0
    Битовая глубина : 8 бит
    Тип развёртки : Прогрессивная
    Метод сжатия : С потерями
    Бит/(Пиксели*Кадры) : 0.228
    Размер потока : 371 Мбайт (82%)
    Библиотека кодирования : XviD 1.2.1 (UTC 2008-12-04)
    Аудио #1
    Идентификатор : 1
    Формат : MPEG Audio
    Версия формата : Version 1
    Профиль формата : Layer 3
    Режим : Joint stereo
    Расширение режима : MS Stereo
    Идентификатор кодека : 55
    Идентификатор кодека/Подсказка : MP3
    Продолжительность : 43 м.
    Вид битрейта : Постоянный
    Битрейт : 128 Кбит/сек
    Каналы : 2 канала
    Частота : 48,0 КГц
    Метод сжатия : С потерями
    Размер потока : 39,6 Мбайт (9%)
    Выравнивание : Соединение по промежуткам
    Продолжительность промежутка : 42 мс. (1,00 видеокадр)
    Время предзагрузки промежутка : 504 ms
    Библиотека кодирования : LAME3.98r
    Настройки программы : -m j -V 4 -q 2 -lowpass 17 -b 128
    Аудио #2
    Идентификатор : 2
    Формат : MPEG Audio
    Версия формата : Version 1
    Профиль формата : Layer 3
    Режим : Joint stereo
    Расширение режима : MS Stereo
    Идентификатор кодека : 55
    Идентификатор кодека/Подсказка : MP3
    Продолжительность : 43 м.
    Вид битрейта : Постоянный
    Битрейт : 128 Кбит/сек
    Каналы : 2 канала
    Частота : 48,0 КГц
    Метод сжатия : С потерями
    Размер потока : 39,6 Мбайт (9%)
    Выравнивание : Соединение по промежуткам
    Продолжительность промежутка : 42 мс. (1,00 видеокадр)
    Время предзагрузки промежутка : 504 ms
    Библиотека кодирования : LAME3.98r
    Настройки программы : -m j -V 4 -q 2 -lowpass 17 -b 128

    Внимание! Раздача ведётся путём добавления новых серий.

    Внимание! Раздача ведётся путём добавления новых серий; при каждом добавлении создётся новый торрент. Чтобы начать докачку новой серии, пользователям необходимо сделать следующее:
  • Остановить скачивание.
  • Удалить старый торрент у себя из клиента (старые серии удалять не надо).
  • Скачать новый торрент и запустить его у себя в клиенте вместо старого, при этом указать клиенту путь в старую папку куда и должно происходить скачивание новых серий.
    Ваш клиент при этом должен произвести хеширование (проверку) старой папки (если не производит сам - помогите ему сделать это), и будет докачивать только те серии которых у вас ещё нет. Старые серии при этом не удаляются, а продолжают раздаваться!
    Eсли вы уже удалили старые серии, то предотвратить повторную закачку старых серий можно, отжав галочку в соответсвующих местах при запуске нового торрента. По возможности, желательно не удалять старые серии как можно дольше чтобы релизёр не столько продолжал раздавать старые серии, а смог сконцентрироваться на новых.
    Как закачать отдельный файл из торрента или докачать ранее пропущенные файлы торрента!
  • --
    [cybertorrent.ru].t7795.torrent 
    Торрент: Зарегистрирован [ 2018-02-18 23:20 ] · 5F01104B5719F4C6F12D874F5B56BBB6B3C81219

    Скачать .torrent

    Скачать

    60 KB

    Статус: проверено
    Скачан: 0 раз
    Размер: 10,77 GB
    Профиль [ЛС]
    Показать сообщения:    

    Текущее время: 20-Май 19:42

    Часовой пояс: UTC ± 0



    Вы не можете начинать темы
    Вы не можете отвечать на сообщения
    Вы не можете редактировать свои сообщения
    Вы не можете удалять свои сообщения
    Вы не можете голосовать в опросах
    Вы не можете прикреплять файлы к сообщениям
    Вы можете скачивать файлы