Статистика раздачи
Размер:  1,46 GB   |    Зарегистрирован:  2 месяца 1 день   |    Скачан:  0 раз

Полного источника не было: Никогда

 
   
 
 

Keeper ®

Пол:
Не указан
Стаж:
2 месяца 8 дней
Сообщений:
655

Гипноз/ Hipnos- Страна: Испания
Жанр: ужасы, триллер
Год выпуска: 2004
Продолжительность: 01:29:09-Перевод: Профессиональный (многоголосый закадровый) MVO
Перевод 2: Авторский (одноголосый закадровый) Евгений Гранкин
Субтитры: нет
Оригинальная аудиодорожка: нет-Режиссер: Дэвид Каррерас / David Carreras
В ролях: Кристина Брондо, Дэмиан Бишир, Джулиан Виллагран, Федор Аткин, Марисоль Мембрилло, Наталия Санчез-Описание: Молодой врач-психиатр Беатрис устраивается в престижную клинику, где опасных и непредсказуемых больных лечат гипнозом. Взявшись помочь юной пациентке, она добивается успеха. Но когда девочка загадочным образом погибает, Беатрис начинает подозревать, что в белых стенах больницы, затерявшейся в мрачной необитаемой глуши, происходит что-то странное.
Жуткие откровения и пугающие видения ведут её по извилистому лабиринту страха и смерти, где за каждым поворотом таится новая пугающая загадка. Вскоре Беатрис понимает: в этом зловещем царстве гипноза ей суждено стать следующей жертвой неведомого кошмара…-Доп. информация: Рип сделан с этой раздачи BDRemux 1080i. Всем удачного просмотра.-Сэмпл: http://multi-up.com/1154551-Качество видео: BDRip
Формат видео: AVI
Видео: 704x288 (2.50:1), 25 fps, XviD build 67 ~1 691 kbps avg, 0.334 bit/pixel
Аудио: 48 kHz, AC3 Dolby Digital, 3/2 (L,C,R,l,r) + LFE ch, ~448.00 kbps avg MVO
Аудио 2: 48 kHz, AC3, 2 (L,R), ~192.00 kbps avg (Евгений Гранкин)

MediaInfo

General
Complete name : F:\муви на smart\Новая папка (2)\Гипноз (2004) by Crusstill+.avi
Format : AVI
Format/Info : Audio Video Interleave
File size : 1.46 GiB
Duration : 1 h 29 min
Overall bit rate : 2 346 kb/s
Writing application : VirtualDubMod 1.5.4.1 (build 2066/release)
Writing library : VirtualDubMod build 2066/release
Video
ID : 0
Format : MPEG-4 Visual
Format profile : Advanced Simple@L5
Format settings, BVOP : 1
Format settings, QPel : No
Format settings, GMC : No warppoints
Format settings, Matrix : Custom
Codec ID : XVID
Codec ID/Hint : XviD
Duration : 1 h 29 min
Bit rate : 1 691 kb/s
Width : 704 pixels
Height : 288 pixels
Display aspect ratio : 2.40:1
Frame rate : 25.000 FPS
Color space : YUV
Chroma subsampling : 4:2:0
Bit depth : 8 bits
Scan type : Progressive
Compression mode : Lossy
Bits/(Pixel*Frame) : 0.334
Stream size : 1.05 GiB (72%)
Writing library : XviD 67
Audio #1
ID : 1
Format : AC-3
Format/Info : Audio Coding 3
Mode extension : CM (complete main)
Format settings, Endianness : Big
Codec ID : 2000
Duration : 1 h 29 min
Bit rate mode : Constant
Bit rate : 448 kb/s
Channel(s) : 6 channels
Channel positions : Front: L C R, Side: L R, LFE
Sampling rate : 48.0 kHz
Frame rate : 31.250 FPS (1536 spf)
Compression mode : Lossy
Stream size : 286 MiB (19%)
Alignment : Split accross interleaves
Interleave, duration : 40 ms (1.00 video frame)
Interleave, preload duratio : 500 ms
Audio #2
ID : 2
Format : AC-3
Format/Info : Audio Coding 3
Mode extension : CM (complete main)
Format settings, Endianness : Big
Codec ID : 2000
Duration : 1 h 29 min
Bit rate mode : Constant
Bit rate : 192 kb/s
Channel(s) : 2 channels
Channel positions : Front: L R
Sampling rate : 48.0 kHz
Frame rate : 31.250 FPS (1536 spf)
Compression mode : Lossy
Stream size : 122 MiB (8%)
Alignment : Split accross interleaves
Interleave, duration : 40 ms (1.00 video frame)
Interleave, preload duratio : 500 ms

Скриншоты

Сравнение скриншотов

С DVD рипом. Качество исходника разное и в обоих случаях среднее по качеству. Думаю целесообразно оставить обе раздачи.
http://cybertorrent.ru/viewtopic.php?t=1224560
http://screenshotcomparison.com/comparison/210277/
[cybertorrent.ru].t20402.torrent 
Торрент: Зарегистрирован [ 2018-02-22 04:30 ] · 55068A425D3C3D9049CE537708DE50ED0B247CD7

Скачать .torrent

Скачать

15 KB

Статус: проверено
Скачан: 0 раз
Размер: 1,46 GB
Профиль [ЛС]
Показать сообщения:    

Текущее время: 24-Апр 02:58

Часовой пояс: UTC ± 0



Вы не можете начинать темы
Вы не можете отвечать на сообщения
Вы не можете редактировать свои сообщения
Вы не можете удалять свои сообщения
Вы не можете голосовать в опросах
Вы не можете прикреплять файлы к сообщениям
Вы можете скачивать файлы