Статистика раздачи
Размер:  1,1 GB   |    Зарегистрирован:  3 дня   |    Скачан:  0 раз

Полного источника не было: Никогда

Личеров:  10  [  0 KB/s  ]   Подробная статистика пиров
 
   
 
 

zadora ®

Пол:
Не указан
Стаж:
5 дней
Сообщений:
128

Глухарь. Приходи, Новый год!
Год выпуска: 2009
Жанр: Детектив, комедия
Продолжительность: 01:31:27
Режиссер: Тимур Алпатов, Юрий Попович, Валерий Мызников
В ролях: Максим Аверин, Денис Рожков, Виктория Тарасова, Мария Болтнева, Анастасия Мельникова, Андрей Федорцов, Владимир Фекленко, Софья Хилькова, Александр Бобров, Алексей Воробьев, Владислав Котлярский, Борис Покровский
Описание: Грядёт Новый год. Глухарев и Антошин пытаются раздобыть денег. С этой целью они фотографируют задержанного мошенника в милицейской форме и выдают его за погибшего следователя, который недавно устроился на работу в отдел. Ошарашенным сотрудникам ОВД ничего не остается делать, как сдавать деньги на похороны.... Узнав об этой хулиганской выходке своих подчиненных, Зимина в наказание оставляет друзей дежурить в новогоднюю ночь. 31 декабря юная беспризорница Вера крадет телефон у подруги Антошина Насти и требует с позвонившего Дениса деньги за аппарат. Глухарев и Антошин ловят Веру, но девочка сбегает. И тут... совершенно неожиданно из Петербурга в Москву приезжают небезызвестные полковник Ухов и психолог Мельникова - сотрудники специального отдела по расследованию особо опасных дел со знаменитого "Литейного". Они тоже ищут Веру, которая стала свидетельницей одного загадочного преступления в Питере. Удастся ли им совместно с московскими коллегами найти девочку? В то же время Коле Тарасову приходится разбираться в непростой ситуации с восходящей звездой эстрады Алексом, которого обвиняют в плагиате - краже песни про Новый год. Докажет ли молодой певец Алекс свои авторские права на песню? И какие ещё невообразимые истории произойдут с нашими героями?
Доп. информация:
Внимание! Скорость моей раздачи не более 30 – 35 кБ/с. Прошу не волноваться и не беспокоиться!
После закачки прошу оставаться на раздаче!
Данный формат просматривается пока не на всех бытовых ДВД-ишниках!
Применяется упрощенный вариант кодирования ( H.264: Unresricted 1 pass Lossles) с его предустановками
Тех.данные:

скрытый текст

Complete name : D:\ФИЛЬМЫ_НА_РАЗДАЧЕ\Gluhar_Novij God_[rutracker.org].mkv
Format : Matroska
File size : 1.10 GiB
Duration : 1h 31mn
Overall bit rate : 1 718 Kbps
Encoded date : UTC 2009-12-31 17:16:49
Writing application : mkvmerge v2.9.7 ('Tenderness') built on Jul 1 2009 18:43:35
Writing library : libebml v0.7.7 + libmatroska v0.8.1
Video
ID : 1
Format : AVC
Format/Info : Advanced Video Codec
Format profile : High@L5.1
Format settings, CABAC : Yes
Format settings, ReFrames : 2 frames
Muxing mode : Container profile=Unknown@5.1
Codec ID : V_MPEG4/ISO/AVC
Duration : 1h 31mn
Bit rate : 1 555 Kbps
Nominal bit rate : 1 580 Kbps
Width : 704 pixels
Height : 368 pixels
Display aspect ratio : 1.913
Frame rate : 25.000 fps
Resolution : 24 bits
Colorimetry : 4:2:0
Scan type : Progressive
Bits/(Pixel*Frame) : 0.240
Stream size : 1 018 MiB (91%)
Writing library : x264 core 68 r1183M f21daff
Encoding settings : cabac=1 / ref=2 / deblock=1:0:0 / analyse=0x3:0x113 / me=hex / subme=4 / psy_rd=0.0:0.0 / mixed_ref=0 / me_range=16 / chroma_me=1 / trellis=1 / 8x8dct=1 / cqm=0 / deadzone=21,11 / chroma_qp_offset=0 / threads=3 / nr=0 / decimate=1 / mbaff=0 / bframes=3 / b_pyramid=0 / b_adapt=1 / b_bias=0 / direct=1 / wpredb=1 / keyint=250 / keyint_min=25 / scenecut=40 / rc=abr / bitrate=1580 / ratetol=1.0 / qcomp=0.60 / qpmin=10 / qpmax=51 / qpstep=4 / ip_ratio=1.40 / pb_ratio=1.30 / aq=1:1.00
Audio
ID : 2
Format : AC-3
Format/Info : Audio Coding 3
Codec ID : A_AC3
Duration : 1h 31mn
Bit rate mode : Constant
Bit rate : 128 Kbps
Channel(s) : 2 channels
Channel positions : L R
Sampling rate : 48.0 KHz
Stream size : 83.7 MiB (7%)
Качество: SATRip
Формат: MKV
Видео кодек: H.264
Аудио кодек: AC3
Видео: MPEG4 Video (H264) 704x368 25.00fps 1 580 Kbps [Bits/(Pixel*Frame): 0.240]
Аудио: Dolby AC3 48000Hz stereo 128 Kbps

Скриншоты

[cybertorrent.ru].t7691.torrent 
Торрент: Зарегистрирован [ 2018-02-18 17:50 ] · 4E69000FAECC8A656B86FB492513C6DD5F5F16E7

Скачать .torrent

Скачать

11 KB

Статус: проверено
Скачан: 0 раз
Размер: 1,1 GB
terms.php
Профиль [ЛС]
Показать сообщения:    

Текущее время: 21-Фев 19:02

Часовой пояс: UTC ± 0



Вы не можете начинать темы
Вы не можете отвечать на сообщения
Вы не можете редактировать свои сообщения
Вы не можете удалять свои сообщения
Вы не можете голосовать в опросах
Вы не можете прикреплять файлы к сообщениям
Вы можете скачивать файлы