Статистика раздачи
Размер:  7,5 GB   |    Зарегистрирован:  3 месяца 2 дня   |    Скачан:  0 раз

Полного источника не было: Никогда

Личеров:  1  [  0 KB/s  ]  
 
   
 
 

Избранец ®

Пол:
Не указан
Стаж:
3 месяца 4 дня
Сообщений:
314

Частная практика / Private Practice
Год выпуска: 2011
Страна: США
Жанр: Драма, комедия
Продолжительность: 00:42:00
Перевод: отсутствует
Русские субтитры: есть / "Частная практика"
Режиссёр: Марк Тинкер
В ролях: Кейт Уолш, Тим Дейли, Одра МакДональд, Пол Эдельштайн, КаДи Стрикленд, Крис Лоуэлл, Тэй Диггз, Эми Бреннеман, Дэвид Сатклифф, Брайан Бенбен, Катерина Скорсоне, Бенджамин Брэтт
Описание: Спин-офф сериала "Анатомия страсти" ( Grey's anatomy ), в котором главной героиней выступит доктор Эддисон Форбс Монтгомери, переехавшая в Санта-Монику и начавшая новую жизнь. Эддисон – известный хирург. Оставив работу в Сиэттле, рухнувший брак с Дереком Шепардом и неудавшиеся отношения с Марком Слоаном, она переезжает в Лос-Анджелес, в более солнечный климат и к более счастливым возможностям. Эддисон вновь встречается с друзьями по медицинской школе, Наоми и Сэмом Беннет, присоединяясь к работе в их шикарном Oceanside Wellness Center. Наоми – акушерка и специалист по гормонам, главный владелец клиники, а Сэм – терапевт и совладелец, чьи книги-самоучители принесли ему славу «медицинского гуру обычных людей». Недавно развелись, но вынуждены сосуществовать ради дочери Майи и общей практики, однако их отношения едва ли назовешь дружескими. Доктор Купер Фридман – прекрасный педиатр, но в личной жизни терпит неудачу за неудачей, притягивая «не тот тип женщин». Свидания через Интернет заканчивались для него плачевно. Утешение и совет Купер ищет у своей подруги, психиатра Вайолет Тернер, не более удачливой в сердечных делах. Доктор Пит Уайлдер – специалист по альтернативной медицине. Привлекательный и уверенный в себе, Пит может привлечь любую женщину и уже привлек – Эддисон. Несмотря на влечение, уверенность и даже самоуверенность Пита, он все еще не может оправиться от трагической смерти его жены восемь лет назад, поскольку с тех пор у него так и не было серьезных отношений. Но вместе с Эддисон может попробовать начать жизнь сначала и он.

Перевод на русский язык: marina_81, Bre, Anhen, ko-13, Nuta, Nika
Редакция: Anhen, Nuta, TishaCat
Тайминг: TishaCat, Anhen
Ссылка на предыдущие и альтернативные раздачи
Качество: TVRip
Формат: AVI
Видео кодек: XviD
Аудио кодек: MP3
Видео: 624x352 23.98fps, 1023 Kbps, 0.194 bit/pixel
Аудио: 48000Гц, 2ch, 160 Кбит/сек22 серия. Обновите торрент

MI

Общее
Полное имя : D:\Интернет\Private.Practice.5.sezon.RGChP\private.practice.s5e01.TVRip.RGChP\private.practice.s5e01.TVRip.RGChP.avi
Формат : AVI
Формат/Информация : Audio Video Interleave
Размер файла : 349 Мбайт
Продолжительность : 42 м.
Общий поток : 1157 Кбит/сек
Программа кодирования : Lavf53.2.0
Видео
Идентификатор : 0
Формат : MPEG-4 Visual
Профиль формата : Advanced Simple@L5
Параметр BVOP формата : 2
Параметр QPel формата : Нет
Параметр GMC формата : Без точки перехода
Параметр матрицы формата : Default (H.263)
Идентификатор кодека : XVID
Идентификатор кодека/Подсказка : XviD
Продолжительность : 42 м.
Битрейт : 1023 Кбит/сек
Ширина : 624 пикс.
Высота : 352 пикс.
Соотношение сторон : 16:9
Частота кадров : 23,976 кадр/сек
Цветовое пространство : YUV
Подвыборка цветности : 4:2:0
Битовая глубина : 8 бит
Тип развёртки : Прогрессивная
Метод сжатия : С потерями
Бит/(Пиксели*Кадры) : 0.194
Размер потока : 309 Мбайт (88%)
Библиотека кодирования : XviD 63
Аудио
Идентификатор : 1
Формат : MPEG Audio
Версия формата : Version 1
Профиль формата : Layer 3
Режим : Joint stereo
Расширение режима : MS Stereo
Идентификатор кодека : 55
Идентификатор кодека/Подсказка : MP3
Продолжительность : 42 м.
Вид битрейта : Переменный
Битрейт : 121 Кбит/сек
Канал(ы) : 2 канала(ов)
Частота : 48,0 КГц
Метод сжатия : С потерями
Размер потока : 36,6 Мбайт (10%)
Выравнивание : Соединение по промежуткам
Продолжительность промежутка : 24 мс. (0,58 видеокадр)

Внимание! Раздача ведётся путём добавления новых серий

Внимание! Раздача ведётся путём добавления новых серий; при каждом добавлении создётся новый торрент. Чтобы начать докачку новой серии, пользователям необходимо сделать следующее:
(1) остановить скачивание,
(2) удалить старый торрент у себя из клиента (старые серии удалять не надо),
(3) скачать новый торрент и запустить его у себя в клиенте вместо старого, при этом указать клиенту путь в старую папку, куда и должно происходить скачивание новых серий.
Ваш клиент при этом должен произвести хеширование (проверку) старой папки (если не производит сам - помогите ему сделать это), и будет докачивать только те серии, которых у вас ещё нет. Старые серии при этом не удаляются, а продолжают раздаваться!
Eсли вы уже удалили старые серии, то предотвратить повторную закачку старых серий можно, отжав галочку в соответствующих местах при запуске нового торрента.

Список серий

5.01 - "God Laughs"/"Когда Бог смеётся"
5.02 - "Breaking the Rules"/"Нарушая правила"
5.03 - "Deal With It"/"Как достигнуть согласия"
5.04 - "Remember Me"/"Помни меня"
5.05 - "Step One"/"Шаг первый"
5.06 - "If I Hadn't Forgotten"/"А вдруг забыть не получится?.."
5.07 - "Don't Stop 'Till You Get Enough"/"Ещё не поздно остановиться"
5x08 - Who We Are/"Кто, если не мы?" и 5x09 - The Breaking Point/"Перелом" - сдвоенная серия!
5.10 - "Are You My Mother?"/"Ты моя мама?"
5.11 - "The Standing Eight Count"/"Подняться на счёт восемь"
5.12 - "Losing Battles"/"Без шансов на победу"
5.13 - "The Time Has Come"/"Время пришло"
5.14 - "Too Much"/"Больно"
5.15 - "You Break My Heart"/"Ты разбиваешь мне сердце..."
5.16 - "Andromeda"/"Андромеда"
5.17 - "The Letting Go"/"Избавление"
5.18 - "It Was Inevitable"/"Это было неизбежно"
5.19 - "And Then There Was One"/"Один единственный"
5.20 - "True Colors"/"Неприкрытая правда"
5.21 - "Drifting Back"/"Всё сначала"
5.22 - "Gone, Baby, Gone" / "Прощай, детка, прощай..."

Скриншоты

[cybertorrent.ru].t7800.torrent 
Торрент: Зарегистрирован [ 2018-02-18 23:20 ] · 491945874CF0EB1B5A6F1272FF795CBEA7D9DCCB

Скачать .torrent

Скачать

24 KB

Статус: проверено
Скачан: 0 раз
Размер: 7,5 GB
Профиль [ЛС]
Показать сообщения:    

Текущее время: 20-Май 23:30

Часовой пояс: UTC ± 0



Вы не можете начинать темы
Вы не можете отвечать на сообщения
Вы не можете редактировать свои сообщения
Вы не можете удалять свои сообщения
Вы не можете голосовать в опросах
Вы не можете прикреплять файлы к сообщениям
Вы можете скачивать файлы