Статистика раздачи
Размер:  8,08 GB   |    Зарегистрирован:  3 месяца 5 дней   |    Скачан:  1 раз

Полного источника не было: 19 дней

Личеров:  9  [  0 KB/s  ]  
 
   
 
 

Ласточка ®

Пол:
Не указан
Стаж:
3 месяца 6 дней
Сообщений:
264

Центр улучшения жизни "Ясный". Цикл лекций "Основы организации"
Год выпуска: 2013
Страна: Россия
Жанр: прикладная философия, административная технология, лекции
Продолжительность: 11:47:12
Перевод: Не требуется
Описание: Данный цикл лекций посвящен основам организации. Лекции читает одитор Артур Голубкин, Центр улучшения жизни "Ясный" (г. Владивосток).
качество: CAMRip
формат: m4v
видеокодек: MPEG-4
аудиокодек: AAC
Видео: MPEG-4, 640x480 (4:3), 1503 kbps, 25 fps
Аудио: AAC, 128 kbps, 44.1 kHz, 2 ch

Скриншоты

Отчет MediaInfo

Формат : MPEG-4
Идентификатор кодека : M4V
Размер файла : 625 Мбайт
Продолжительность : 53 м.
Общий поток : 1633 Кбит/сек
Дата кодирования : UTC 2012-09-15 23:25:31
Дата пометки : UTC 2012-09-15 23:25:36
Видео
Идентификатор : 1
Формат : AVC
Формат/Информация : Advanced Video Codec
Профиль формата : Baseline@L3.0
Параметр CABAC формата : Нет
Параметр ReFrames формата : 1 кадр
Идентификатор кодека : avc1
Идентификатор кодека/Информация : Advanced Video Coding
Продолжительность : 53 м.
Вид битрейта : Переменный
Битрейт : 1504 Кбит/сек
Максимальный битрейт : 4006 Кбит/сек
Ширина : 640 пикселей
Высота : 480 пикселей
Соотношение сторон : 4:3
Режим частоты кадров : Постоянный
Частота кадров : 25,000 кадров/сек
Цветовое пространство : YUV
Субдискретизация насыщенности : 4:2:0
Битовая глубина : 8 бит
Тип развёртки : Прогрессивная
Бит/(Пиксели*Кадры) : 0.196
Размер потока : 576 Мбайт (92%)
Язык : English
Дата кодирования : UTC 2012-09-15 22:31:34
Дата пометки : UTC 2012-09-15 23:25:36
Основные цвета : BT.601-6 525, BT.1358 525, BT.1700 NTSC, SMPTE 170M
Характеристики трансфера : BT.709-5, BT.1361
Коэффициенты матрицы : BT.601-6 525, BT.1358 525, BT.1700 NTSC, SMPTE 170M
Аудио
Идентификатор : 2
Формат : AAC
Формат/Информация : Advanced Audio Codec
Профиль формата : LC
Идентификатор кодека : 40
Продолжительность : 53 м.
Вид битрейта : Постоянный
Битрейт : 128 Кбит/сек
Каналы : 2 канала
Расположение каналов : Front: L R
Частота : 44,1 КГц
Метод сжатия : С потерями
Размер потока : 48,1 Мбайт (8%)
Язык : English
Дата кодирования : UTC 2012-09-15 22:31:35
Дата пометки : UTC 2012-09-15 23:25:36
Material_Duration : 3212643
Material_StreamSize : 50472037
Ясный Мост
Порядок просмотра и прохождения Полей:
01 Поля перехода
02 Поля исцеления
03 Поля статики. Часть 1
04 Поля статики. Часть 2
05 Поля статики. Часть 3
06 Поля созидания. Часть 1
07 Поля созидания. Часть 2
08 Поля созидания. Часть 3
09 Поля созидания. Часть 4
10 Поля жизни
11 Поля смерти
12 Поля битв
13 Поля причинности
ТЕКСТЫ КО ВСЕМ ЛЕКЦИЯМ
[cybertorrent.ru].t1494.torrent 
Торрент: Зарегистрирован [ 2018-02-16 06:54 ] · 674245C661FF4E90CC5898504ECDC2D8DBF183B3

Скачать .torrent

Скачать

22 KB

Статус: проверено
Скачан: 1 раз
Размер: 8,08 GB
Профиль [ЛС]
Показать сообщения:    

Текущее время: 21-Май 20:41

Часовой пояс: UTC ± 0



Вы не можете начинать темы
Вы не можете отвечать на сообщения
Вы не можете редактировать свои сообщения
Вы не можете удалять свои сообщения
Вы не можете голосовать в опросах
Вы не можете прикреплять файлы к сообщениям
Вы можете скачивать файлы