Статистика раздачи
Размер:  9,16 GB   |    Зарегистрирован:  3 месяца 11 дней   |    Скачан:  1 раз

Полного источника не было: 25 дней

 
   
 
 

Ласточка ®

Пол:
Не указан
Стаж:
3 месяца 12 дней
Сообщений:
264

Центр улучшения жизни "Ясный". Цикл лекций "Оценка данных". Часть 1
Дата/Год выпуска: 2014
Страна: Россия
Жанр: прикладная философия, админ.технология, лекции
Продолжительность: 15:42:21
Перевод: Не требуется
Описание: Данный цикл лекций посвящен оценке данных. Лекции читает одитор Артур Голубкин, Центр улучшения жизни "Ясный" (г. Владивосток).
качество: CAMRip
формат: m4v
Видео: AVC, 640x480 (4:3), 1503 kbps, 25 fps
Аудио: AAC, 128 kbps, 44.1 kHz, 2 ch

Скриншоты

Отчет MediaInfo

Общее
Полное имя : F:\Elements Downloads\Other Stuff\Цикл лекций Оценка данных\Оценка данных Часть 01\Ozenka dannyh_01.m4v
Формат : MPEG-4
Идентификатор кодека : M4V
Размер файла : 693 Мбайт
Продолжительность : 59 м.
Общий поток : 1635 Кбит/сек
Дата кодирования : UTC 2013-06-02 09:48:04
Дата пометки : UTC 2013-06-02 09:48:10
Видео
Идентификатор : 1
Формат : AVC
Формат/Информация : Advanced Video Codec
Профиль формата : Baseline@L3.0
Параметр CABAC формата : Нет
Параметр ReFrames формата : 1 кадр
Идентификатор кодека : avc1
Идентификатор кодека/Информация : Advanced Video Coding
Продолжительность : 59 м.
Вид битрейта : Переменный
Битрейт : 1504 Кбит/сек
Максимальный битрейт : 4006 Кбит/сек
Ширина : 640 пикселей
Высота : 480 пикселей
Соотношение сторон : 4:3
Режим частоты кадров : Постоянный
Частота кадров : 25,000 кадров/сек
Цветовое пространство : YUV
Субдискретизация насыщенности : 4:2:0
Битовая глубина : 8 бит
Тип развёртки : Прогрессивная
Бит/(Пиксели*Кадры) : 0.196
Размер потока : 637 Мбайт (92%)
Заголовок : Ћбработчик видео Apple
Язык : English
Дата кодирования : UTC 2013-06-02 08:46:55
Дата пометки : UTC 2013-06-02 09:48:10
Основные цвета : BT.601-6 525, BT.1358 525, BT.1700 NTSC, SMPTE 170M
Характеристики трансфера : BT.709-5, BT.1361
Коэффициенты матрицы : BT.601-6 525, BT.1358 525, BT.1700 NTSC, SMPTE 170M
Аудио
Идентификатор : 2
Формат : AAC
Формат/Информация : Advanced Audio Codec
Профиль формата : LC
Идентификатор кодека : 40
Продолжительность : 59 м.
Вид битрейта : Постоянный
Битрейт : 128 Кбит/сек
Каналы : 2 канала
Расположение каналов : Front: L R
Частота : 44,1 КГц
Метод сжатия : С потерями
Размер потока : 54,2 Мбайт (8%)
Заголовок : Ћбработчик звука Apple
Язык : English
Дата кодирования : UTC 2013-06-02 08:46:55
Дата пометки : UTC 2013-06-02 09:48:10
Material_Duration : 3553094
Material_StreamSize : 56863754
Ясный Мост
Порядок просмотра и прохождения Полей:
01 Поля перехода
02 Поля исцеления
03 Поля статики. Часть 1
04 Поля статики. Часть 2
05 Поля статики. Часть 3
06 Поля созидания. Часть 1
07 Поля созидания. Часть 2
08 Поля созидания. Часть 3
09 Поля созидания. Часть 4
10 Поля жизни
11 Поля смерти
12 Поля битв
13 Поля причинности
ТЕКСТЫ КО ВСЕМ ЛЕКЦИЯМ
[cybertorrent.ru].t1849.torrent 
Торрент: Зарегистрирован [ 2018-02-16 08:44 ] · 603161FEA13C998CA787555DCF51D51F0E83881D

Скачать .torrent

Скачать

24 KB

Статус: проверено
Скачан: 1 раз
Размер: 9,16 GB
Профиль [ЛС]
Показать сообщения:    

Текущее время: 27-Май 19:50

Часовой пояс: UTC ± 0



Вы не можете начинать темы
Вы не можете отвечать на сообщения
Вы не можете редактировать свои сообщения
Вы не можете удалять свои сообщения
Вы не можете голосовать в опросах
Вы не можете прикреплять файлы к сообщениям
Вы можете скачивать файлы