Статистика раздачи
Размер:  1,31 GB   |    Зарегистрирован:  3 месяца 11 дней   |    Скачан:  0 раз
Сидов:  2  [  0 KB/s  ]  
 
   
 
 

Red ®

Пол:
Не указан
Стаж:
3 месяца 12 дней
Сообщений:
245

Открытый микрофон
Дата/Год выпуска: 12.05.2017
Страна: Россия
Жанр: Юмор
Продолжительность: 00:49:51
Перевод: Не требуется
Русские субтитры: нет
Оригинальная аудиодорожка: русский
Ведущий: Андрей Бебуришвили
Жюри: Руслан Белый, Юлия Ахмедова, Слава Комиссаренко и Тимур Каргинов
Телеканал: ТНТ
Описание: 27 января на ТНТ начнется новое оригинальное юмористическое шоу талантов – «Открытый микрофон». Участниками проекта станут молодые (и не очень), никому неизвестные стендап-комики, которые будут бороться за возможность попасть в основной состав одного из самых популярных комедийных шоу в России – Stand Up на ТНТ. Несмотря на то, что многие участники «Открытого микрофона» не так давно занимаются стендапом, их выступления окажутся неожиданно смешными, свежими и непохожими на монологи комиков шоу Stand Up. Уже после отборочного тура станет ясно, что новички легко могут составить конкуренцию мэтрам в жанре стендап и даже перетянуть одеяло популярности на себя. Насколько реальна эта угроза - судить зрителям «Открытого микрофона».
«Открытый микрофон» - это не очередной развлекательный проект, это социальный лифт для комиков, работающих в самом сложном и откровенном юмористическом жанре. Все, о чем рассказывают эти ребята, основано на их реальной жизни и переживаниях. И здесь не может быть запретных тем или сторонней редактуры – только правда, только острые шутки, только стендап в «Открытом микрофоне» на ТНТ.

Чтобы оказаться в финале и побороться за место в рядах самых крутых комиков страны, участникам шоу «Открытый микрофон» предстоит преодо

  • Отбор в команды
    Начинающие комики выступят перед жюри со своим стендапом. Участник проходит в команду, если его выбрал хотя бы один из наставников. К концу этапа будет сформировано 4 команды по 8 человек, которые и начнут борьбу за главный приз проекта.
  • Дуэли
    Участникам предстоит поработать со своими наставниками и написать одно новое выступление. В каждой программе на сцену поднимутся по 2 участника от каждой команды. По итогам выступления наставник должен будет оставить в проекте только одного из них.
  • Концерты
    Каждая команда готовит концерт с участием всех комиков. Один выпуск – один концерт каждой команды. В конце программы наставник выберет того, кто покинет шоу.
  • Полуфинал
    Комики борются за право попасть в финал «Открытого микрофона». Как всегда, выступления им помогают готовить наставники. В финал проходят по два участника от каждой команды.
  • Финал
    8 финалистов выйдут на легендарную сцену проекта Stand Up на ТНТ! Каждый комик покажет свое финальное выступление. Члены жюри совместно выберут победителя первого сезона шоу «Открытый микрофон» и нового постоянного комика проекта StandUp на ТНТ!
  • Качество: WEB-DL 720p
    Формат: MKV
    Видео: AVC, 1280x720 (16:9), 25.000 fps, 3 507 Kbps (0.152 bit/pixel)
    Аудио: AC-3, 44.1 KHz, 2 ch, 192 Kbps, CBR

    Список выпусков/серий

    сезон 1, выпуск 16

    MediaInfo

    Общее
    Уникальный идентификатор : 208164624450777990638568507819079238631 (0x9C9B0C614489801BB959F879033803E7)
    Полное имя : D:\[1]\Открытый микрофон\Открытый микрофон. Выпуск 16 (2017.05.12)_720.mkv
    Формат : Matroska
    Версия формата : Version 4 / Version 2
    Размер файла : 1,31 Гбайт
    Продолжительность : 49 м.
    Общий поток : 3775 Кбит/сек
    Название фильма : Открытый микрофон. Выпуск 16 (2017.05.12)_720_nnmclub.to
    Дата кодирования : UTC 2017-05-12 20:08:28
    Программа кодирования : mkvmerge v7.6.0 ('Garden of Dreams') 64bit built on Feb 8 2015 13:04:34
    Библиотека кодирования : libebml v1.3.1 + libmatroska v1.4.2
    DURATION : 00:49:51.195000000
    NUMBER_OF_FRAMES : 85880
    NUMBER_OF_BYTES : 71788668
    _STATISTICS_WRITING_APP : mkvmerge v7.6.0 ('Garden of Dreams') 64bit built on Feb 8 2015 13:04:34
    _STATISTICS_WRITING_DATE_UTC : 2017-05-12 20:08:28
    _STATISTICS_TAGS : BPS DURATION NUMBER_OF_FRAMES NUMBER_OF_BYTES
    Видео
    Идентификатор : 1
    Формат : AVC
    Формат/Информация : Advanced Video Codec
    Профиль формата : High@L3.1
    Параметр CABAC формата : Да
    Параметр ReFrames формата : 1 кадр
    Параметр GOP формата : M=1, N=12
    Идентификатор кодека : V_MPEG4/ISO/AVC
    Продолжительность : 49 м.
    Битрейт : 3507 Кбит/сек
    Ширина : 1280 пикселей
    Высота : 720 пикселей
    Соотношение сторон : 16:9
    Режим частоты кадров : Постоянный
    Частота кадров : 25,000 кадров/сек
    Стандарт вещания : Component
    Цветовое пространство : YUV
    Субдискретизация насыщенности : 4:2:0
    Битовая глубина : 8 бит
    Тип развёртки : Прогрессивная
    Бит/(Пиксели*Кадры) : 0.152
    Размер потока : 1,22 Гбайт (93%)
    Default : Да
    Forced : Нет
    Аудио
    Идентификатор : 2
    Формат : AC-3
    Формат/Информация : Audio Coding 3
    Расширение режима : CM (complete main)
    Параметр Endianness формата : Big
    Идентификатор кодека : A_AC3
    Продолжительность : 49 м.
    Вид битрейта : Постоянный
    Битрейт : 192 Кбит/сек
    Каналы : 2 канала
    Расположение каналов : Front: L R
    Частота : 44,1 КГц
    Битовая глубина : 16 бит
    Метод сжатия : С потерями
    Размер потока : 68,5 Мбайт (5%)
    Default : Да
    Forced : Нет

    Скриншоты

    [cybertorrent.ru].t3269.torrent 
    Торрент: Зарегистрирован [ 2018-02-16 17:30 ] · A3C543BA324EBC462EB18DB531B841270F0892D3

    Скачать .torrent

    Скачать

    14 KB

    Статус: проверено
    Скачан: 0 раз
    Размер: 1,31 GB
    Профиль [ЛС]
    Показать сообщения:    

    Текущее время: 27-Май 19:51

    Часовой пояс: UTC ± 0



    Вы не можете начинать темы
    Вы не можете отвечать на сообщения
    Вы не можете редактировать свои сообщения
    Вы не можете удалять свои сообщения
    Вы не можете голосовать в опросах
    Вы не можете прикреплять файлы к сообщениям
    Вы можете скачивать файлы