Статистика раздачи
Размер:  8,91 GB   |    Зарегистрирован:  3 месяца 11 дней   |    Скачан:  0 раз

Полного источника не было: Никогда

Личеров:  2  [  0 KB/s  ]  
 
   
 
 

Volga ®

Пол:
Не указан
Стаж:
3 месяца 12 дней
Сообщений:
233

Цирк со звёздами
Дата/Год выпуска: 2007
Страна: Россия
Жанр: Телешоу
Продолжительность: 01:40:00
Перевод: Не требуется
Русские субтитры: нет
Оригинальная аудиодорожка: русский
Режиссер: Оксана Дружинина
Телеканал: Первый канал
Описание: «Первый канал» приглашает вас в знаменитый Московский цирк на Цветном бульваре: именно там стартует долгожданная суперпремьера – шоу «Цирк со звездами»! Самые знаменитые и успешные люди российского шоу-бизнеса осваивают различные цирковые профессии. Оценить результаты можно по воскресеньям, присоединившись к эфиру «Первого канала». Фокусы и воздушная гимнастика, клоунада и вольтижировка, жонглирование и дрессура… Каждая неделя – это новый номер и новый жанр. Зрители смогут повлиять на распределение мест в турнирной таблице своим голосованием. Аутсайдеров выгонять не будут. Имя победителя назовут на заключительном гала-шоу. В проекте участвуют только звезды: Елена Корикова, Яна Чурикова, Анастасия Стоцкая, Ксения Собчак, Жанна Фриске, Сергей Лазарев, Светлана Хоркина, Ефим Шифрин, Сергей Белоголовцев, Евгений Стычкин, Алексей Кравченко и участники группы «Чай вдвоем» - Денис Клявер и Стас Костюшкин. Ведут программу Иван Ургант и его шестилетняя соведущая Саша (некоторое время назад одаренное дитя выступило в КВН и очень понравилась зрителям). Судить мастерство участников будут директор Цирка на Цветном Максим Никулин, Галина Волчек и Михаил Швыдкой.
Качество: TVRip
Формат: AVI
Видео: DivX 5 512x384 25fps
Аудио: MP3 44100Hz stereo 112kbps
Доп. информация:
Раздача состоит из отдельных выпусков шоу, предоставленных пользователями bit2down и toNk, за что им большое спасибо. Отдельная благодарность всем сидам, которые поддерживали раздачу файлов все эти годы.
Сэмпл
Цирк со звездами - 2 сезон
Cкриншоты и тех. данные:

Выпуск 1

Тех. данные

General
Format : AVI
Format/Info : Audio Video Interleave
File size : 799 MiB
Duration : 1 h 41 min
Overall bit rate : 1 105 kb/s
Video
ID : 0
Format : MPEG-4 Visual
Format profile : Advanced Simple@L5
Format settings, BVOP : 2
Format settings, QPel : No
Format settings, GMC : No warppoints
Format settings, Matrix : Default (H.263)
Muxing mode : Packed bitstream
Codec ID : XVID
Codec ID/Hint : XviD
Duration : 1 h 41 min
Bit rate : 999 kb/s
Width : 512 pixels
Height : 384 pixels
Display aspect ratio : 4:3
Frame rate : 25.000 FPS
Color space : YUV
Chroma subsampling : 4:2:0
Bit depth : 8 bits
Scan type : Progressive
Compression mode : Lossy
Bits/(Pixel*Frame) : 0.203
Stream size : 723 MiB (90%)
Writing library : XviD 1.2.0.dev47 (UTC 2006-11-01)
Audio
ID : 1
Format : MPEG Audio
Format version : Version 1
Format profile : Layer 3
Codec ID : 55
Codec ID/Hint : MP3
Duration : 1 h 41 min
Bit rate mode : Constant
Bit rate : 96.0 kb/s
Channel(s) : 2 channels
Sampling rate : 44.1 kHz
Compression mode : Lossy
Stream size : 69.4 MiB (9%)
Alignment : Split accross interleaves
Interleave, duration : 40 ms (1.00 video frame)

Выпуск 2

Тех. данные

General
Format : AVI
Format/Info : Audio Video Interleave
File size : 728 MiB
Duration : 1 h 43 min
Overall bit rate : 986 kb/s
Writing library : Boilsoft Joiner build 2411/release
Video
ID : 0
Format : MPEG-4 Visual
Format settings, BVOP : 1
Format settings, QPel : No
Format settings, GMC : No warppoints
Format settings, Matrix : Default (H.263)
Muxing mode : Packed bitstream
Codec ID : DX50
Codec ID/Hint : DivX 5
Duration : 1 h 43 min
Bit rate : 865 kb/s
Nominal bit rate : 7 800 kb/s
Width : 512 pixels
Height : 384 pixels
Display aspect ratio : 4:3
Frame rate : 25.000 FPS
Color space : YUV
Chroma subsampling : 4:2:0
Bit depth : 8 bits
Scan type : Progressive
Compression mode : Lossy
Bits/(Pixel*Frame) : 0.176
Stream size : 638 MiB (88%)
Writing library : DivX 6.5.1 (UTC 2007-03)
Audio
ID : 1
Format : MPEG Audio
Format version : Version 1
Format profile : Layer 3
Mode : Joint stereo
Mode extension : MS Stereo
Codec ID : 55
Codec ID/Hint : MP3
Duration : 1 h 43 min
Bit rate mode : Constant
Bit rate : 112 kb/s
Channel(s) : 2 channels
Sampling rate : 44.1 kHz
Compression mode : Lossy
Stream size : 82.7 MiB (11%)
Alignment : Split accross interleaves
Interleave, duration : 40 ms (1.00 video frame)
Interleave, preload duration : 500 ms
Writing library : LAME3.97
Encoding settings : -m j -V 4 -q 2 -lowpass 15.6 -b 112

Выпуск 3

Тех. данные

General
Format : AVI
Format/Info : Audio Video Interleave
File size : 767 MiB
Duration : 1 h 47 min
Overall bit rate : 994 kb/s
Writing library : Boilsoft Joiner build 2411/release
Video
ID : 0
Format : MPEG-4 Visual
Format settings, BVOP : 1
Format settings, QPel : No
Format settings, GMC : No warppoints
Format settings, Matrix : Default (H.263)
Muxing mode : Packed bitstream
Codec ID : DX50
Codec ID/Hint : DivX 5
Duration : 1 h 47 min
Bit rate : 872 kb/s
Width : 512 pixels
Height : 384 pixels
Display aspect ratio : 4:3
Frame rate : 25.000 FPS
Color space : YUV
Chroma subsampling : 4:2:0
Bit depth : 8 bits
Scan type : Progressive
Compression mode : Lossy
Bits/(Pixel*Frame) : 0.177
Stream size : 673 MiB (88%)
Writing library : DivX 6.5.1 (UTC 2007-03)
Audio
ID : 1
Format : MPEG Audio
Format version : Version 1
Format profile : Layer 3
Mode : Joint stereo
Mode extension : MS Stereo
Codec ID : 55
Codec ID/Hint : MP3
Duration : 1 h 47 min
Bit rate mode : Constant
Bit rate : 112 kb/s
Channel(s) : 2 channels
Sampling rate : 44.1 kHz
Compression mode : Lossy
Delay relative to video : 4 ms
Stream size : 86.5 MiB (11%)
Alignment : Split accross interleaves
Interleave, duration : 40 ms (1.00 video frame)
Interleave, preload duration : 500 ms
Writing library : LAME3.97ЄЄЄЄЄЄЄЄЄЄЄЄ

Выпуск 4

Тех. данные

General
Format : AVI
Format/Info : Audio Video Interleave
File size : 690 MiB
Duration : 1 h 43 min
Overall bit rate : 930 kb/s
Writing library : Boilsoft Joiner build 2411/release
Video
ID : 0
Format : MPEG-4 Visual
Format settings, BVOP : 1
Format settings, QPel : No
Format settings, GMC : No warppoints
Format settings, Matrix : Default (H.263)
Muxing mode : Packed bitstream
Codec ID : DX50
Codec ID/Hint : DivX 5
Duration : 1 h 43 min
Bit rate : 809 kb/s
Width : 512 pixels
Height : 384 pixels
Display aspect ratio : 4:3
Frame rate : 25.000 FPS
Color space : YUV
Chroma subsampling : 4:2:0
Bit depth : 8 bits
Scan type : Progressive
Compression mode : Lossy
Bits/(Pixel*Frame) : 0.165
Stream size : 600 MiB (87%)
Writing library : DivX 6.5.1 (UTC 2007-03)
Audio
ID : 1
Format : MPEG Audio
Format version : Version 1
Format profile : Layer 3
Mode : Joint stereo
Mode extension : MS Stereo
Codec ID : 55
Codec ID/Hint : MP3
Duration : 1 h 43 min
Bit rate mode : Constant
Bit rate : 112 kb/s
Channel(s) : 2 channels
Sampling rate : 44.1 kHz
Compression mode : Lossy
Delay relative to video : 16 ms
Stream size : 83.1 MiB (12%)
Alignment : Split accross interleaves
Interleave, duration : 40 ms (1.00 video frame)
Interleave, preload duration : 500 ms
Writing library : LAME3.97

Выпуск 5

Тех. данные

General
Format : AVI
Format/Info : Audio Video Interleave
File size : 639 MiB
Duration : 1 h 46 min
Overall bit rate : 839 kb/s
Writing library : Boilsoft Joiner build 2411/release
Video
ID : 0
Format : MPEG-4 Visual
Format settings, BVOP : 1
Format settings, QPel : No
Format settings, GMC : No warppoints
Format settings, Matrix : Default (H.263)
Muxing mode : Packed bitstream
Codec ID : DX50
Codec ID/Hint : DivX 5
Duration : 1 h 46 min
Bit rate : 717 kb/s
Width : 512 pixels
Height : 384 pixels
Display aspect ratio : 4:3
Frame rate : 25.000 FPS
Color space : YUV
Chroma subsampling : 4:2:0
Bit depth : 8 bits
Scan type : Progressive
Compression mode : Lossy
Bits/(Pixel*Frame) : 0.146
Stream size : 546 MiB (85%)
Writing library : DivX 6.5.1 (UTC 2007-03)
Audio
ID : 1
Format : MPEG Audio
Format version : Version 1
Format profile : Layer 3
Mode : Joint stereo
Mode extension : MS Stereo
Codec ID : 55
Codec ID/Hint : MP3
Duration : 1 h 46 min
Bit rate mode : Constant
Bit rate : 112 kb/s
Channel(s) : 2 channels
Sampling rate : 44.1 kHz
Compression mode : Lossy
Delay relative to video : 24 ms
Stream size : 85.3 MiB (13%)
Alignment : Split accross interleaves
Interleave, duration : 40 ms (1.00 video frame)
Interleave, preload duration : 500 ms
Writing library : LAME3.97

Выпуск 6

Тех. данные

General
Format : AVI
Format/Info : Audio Video Interleave
File size : 866 MiB
Duration : 1 h 48 min
Overall bit rate : 1 118 kb/s
Writing library : Boilsoft Joiner build 2411/release
Video
ID : 0
Format : MPEG-4 Visual
Format settings, BVOP : 1
Format settings, QPel : No
Format settings, GMC : No warppoints
Format settings, Matrix : Default (H.263)
Muxing mode : Packed bitstream
Codec ID : DX50
Codec ID/Hint : DivX 5
Duration : 1 h 48 min
Bit rate : 997 kb/s
Nominal bit rate : 7 800 kb/s
Width : 512 pixels
Height : 384 pixels
Display aspect ratio : 4:3
Frame rate : 25.000 FPS
Color space : YUV
Chroma subsampling : 4:2:0
Bit depth : 8 bits
Scan type : Progressive
Compression mode : Lossy
Bits/(Pixel*Frame) : 0.203
Stream size : 772 MiB (89%)
Writing library : DivX 6.5.1 (UTC 2007-03)
Audio
ID : 1
Format : MPEG Audio
Format version : Version 1
Format profile : Layer 3
Mode : Joint stereo
Mode extension : MS Stereo
Codec ID : 55
Codec ID/Hint : MP3
Duration : 1 h 48 min
Bit rate mode : Constant
Bit rate : 112 kb/s
Channel(s) : 2 channels
Sampling rate : 44.1 kHz
Compression mode : Lossy
Stream size : 86.8 MiB (10%)
Alignment : Split accross interleaves
Interleave, duration : 40 ms (1.00 video frame)
Interleave, preload duration : 500 ms
Writing library : LAME3.97
Encoding settings : -m j -V 4 -q 2 -lowpass 15.6 -b 112

Выпуск 7

Тех. данные

General
Format : AVI
Format/Info : Audio Video Interleave
File size : 863 MiB
Duration : 1 h 48 min
Overall bit rate : 1 109 kb/s
Writing library : Boilsoft Joiner build 2411/release
Video
ID : 0
Format : MPEG-4 Visual
Format settings, BVOP : 1
Format settings, QPel : No
Format settings, GMC : No warppoints
Format settings, Matrix : Default (H.263)
Muxing mode : Packed bitstream
Codec ID : DX50
Codec ID/Hint : DivX 5
Duration : 1 h 48 min
Bit rate : 987 kb/s
Width : 512 pixels
Height : 384 pixels
Display aspect ratio : 4:3
Frame rate : 25.000 FPS
Color space : YUV
Chroma subsampling : 4:2:0
Bit depth : 8 bits
Scan type : Progressive
Compression mode : Lossy
Bits/(Pixel*Frame) : 0.201
Stream size : 768 MiB (89%)
Writing library : DivX 6.5.1 (UTC 2007-03)
Audio
ID : 1
Format : MPEG Audio
Format version : Version 1
Format profile : Layer 3
Mode : Joint stereo
Mode extension : MS Stereo
Codec ID : 55
Codec ID/Hint : MP3
Duration : 1 h 48 min
Bit rate mode : Constant
Bit rate : 112 kb/s
Channel(s) : 2 channels
Sampling rate : 44.1 kHz
Compression mode : Lossy
Delay relative to video : 11 ms
Stream size : 87.2 MiB (10%)
Alignment : Split accross interleaves
Interleave, duration : 40 ms (1.00 video frame)
Interleave, preload duration : 500 ms
Writing library : LAME3.97

Выпуск 8

Тех. данные

General
Format : AVI
Format/Info : Audio Video Interleave
File size : 796 MiB
Duration : 1 h 48 min
Overall bit rate : 1 029 kb/s
Writing library : Boilsoft Joiner build 2411/release
Video
ID : 0
Format : MPEG-4 Visual
Format settings, BVOP : 1
Format settings, QPel : No
Format settings, GMC : No warppoints
Format settings, Matrix : Default (H.263)
Muxing mode : Packed bitstream
Codec ID : DX50
Codec ID/Hint : DivX 5
Duration : 1 h 48 min
Bit rate : 907 kb/s
Width : 576 pixels
Height : 432 pixels
Display aspect ratio : 4:3
Frame rate : 25.000 FPS
Color space : YUV
Chroma subsampling : 4:2:0
Bit depth : 8 bits
Scan type : Progressive
Compression mode : Lossy
Bits/(Pixel*Frame) : 0.146
Stream size : 702 MiB (88%)
Writing library : DivX 6.5.1 (UTC 2007-03)
Audio
ID : 1
Format : MPEG Audio
Format version : Version 1
Format profile : Layer 3
Mode : Joint stereo
Mode extension : MS Stereo
Codec ID : 55
Codec ID/Hint : MP3
Duration : 1 h 48 min
Bit rate mode : Constant
Bit rate : 112 kb/s
Channel(s) : 2 channels
Sampling rate : 44.1 kHz
Compression mode : Lossy
Delay relative to video : 17 ms
Stream size : 86.6 MiB (11%)
Alignment : Split accross interleaves
Interleave, duration : 40 ms (1.00 video frame)
Interleave, preload duration : 500 ms
Writing library : LAME3.97

Выпуск 9

Тех. данные

General
Format : AVI
Format/Info : Audio Video Interleave
File size : 879 MiB
Duration : 1 h 40 min
Overall bit rate : 1 227 kb/s
Writing library : Boilsoft Joiner build 2411/release
Video
ID : 0
Format : MPEG-4 Visual
Format settings, BVOP : 1
Format settings, QPel : No
Format settings, GMC : No warppoints
Format settings, Matrix : Default (H.263)
Muxing mode : Packed bitstream
Codec ID : DX50
Codec ID/Hint : DivX 5
Duration : 1 h 40 min
Bit rate : 1 105 kb/s
Width : 512 pixels
Height : 384 pixels
Display aspect ratio : 4:3
Frame rate : 25.000 FPS
Color space : YUV
Chroma subsampling : 4:2:0
Bit depth : 8 bits
Scan type : Progressive
Compression mode : Lossy
Bits/(Pixel*Frame) : 0.225
Stream size : 792 MiB (90%)
Writing library : DivX 6.5.1 (UTC 2007-03)
Audio
ID : 1
Format : MPEG Audio
Format version : Version 1
Format profile : Layer 3
Mode : Joint stereo
Mode extension : MS Stereo
Codec ID : 55
Codec ID/Hint : MP3
Duration : 1 h 40 min
Bit rate mode : Constant
Bit rate : 112 kb/s
Channel(s) : 2 channels
Sampling rate : 44.1 kHz
Compression mode : Lossy
Delay relative to video : 11 ms
Stream size : 80.3 MiB (9%)
Alignment : Split accross interleaves
Interleave, duration : 40 ms (1.00 video frame)
Interleave, preload duration : 500 ms
Writing library : LAME3.97

Выпуск 10

Тех. данные

General
Format : AVI
Format/Info : Audio Video Interleave
File size : 1 008 MiB
Duration : 1 h 40 min
Overall bit rate : 1 409 kb/s
Writing library : Boilsoft Joiner build 2411/release
Video
ID : 0
Format : MPEG-4 Visual
Format settings, BVOP : 1
Format settings, QPel : No
Format settings, GMC : No warppoints
Format settings, Matrix : Default (H.263)
Muxing mode : Packed bitstream
Codec ID : DX50
Codec ID/Hint : DivX 5
Duration : 1 h 40 min
Bit rate : 1 287 kb/s
Width : 640 pixels
Height : 480 pixels
Display aspect ratio : 4:3
Frame rate : 25.000 FPS
Color space : YUV
Chroma subsampling : 4:2:0
Bit depth : 8 bits
Scan type : Progressive
Compression mode : Lossy
Bits/(Pixel*Frame) : 0.168
Stream size : 921 MiB (91%)
Writing library : DivX 6.5.1 (UTC 2007-03)
Audio
ID : 1
Format : MPEG Audio
Format version : Version 1
Format profile : Layer 3
Mode : Joint stereo
Mode extension : MS Stereo
Codec ID : 55
Codec ID/Hint : MP3
Duration : 1 h 40 min
Bit rate mode : Constant
Bit rate : 112 kb/s
Channel(s) : 2 channels
Sampling rate : 44.1 kHz
Compression mode : Lossy
Delay relative to video : 18 ms
Stream size : 80.2 MiB (8%)
Alignment : Split accross interleaves
Interleave, duration : 40 ms (1.00 video frame)
Interleave, preload duration : 500 ms
Writing library : LAME3.97

Выпуск 11

Тех. данные

General
Format : AVI
Format/Info : Audio Video Interleave
File size : 1.06 GiB
Duration : 1 h 45 min
Overall bit rate : 1 432 kb/s
Writing library : Boilsoft Joiner build 2411/release
Video
ID : 0
Format : MPEG-4 Visual
Format settings, BVOP : 1
Format settings, QPel : No
Format settings, GMC : No warppoints
Format settings, Matrix : Default (H.263)
Muxing mode : Packed bitstream
Codec ID : DX50
Codec ID/Hint : DivX 5
Duration : 1 h 45 min
Bit rate : 1 311 kb/s
Nominal bit rate : 4 854 kb/s
Width : 640 pixels
Height : 480 pixels
Display aspect ratio : 4:3
Frame rate : 25.000 FPS
Color space : YUV
Chroma subsampling : 4:2:0
Bit depth : 8 bits
Scan type : Progressive
Compression mode : Lossy
Bits/(Pixel*Frame) : 0.171
Stream size : 992 MiB (92%)
Writing library : DivX 6.5.1 (UTC 2007-03)
Audio
ID : 1
Format : MPEG Audio
Format version : Version 1
Format profile : Layer 3
Mode : Joint stereo
Mode extension : MS Stereo
Codec ID : 55
Codec ID/Hint : MP3
Duration : 1 h 45 min
Bit rate mode : Constant
Bit rate : 112 kb/s
Channel(s) : 2 channels
Sampling rate : 44.1 kHz
Compression mode : Lossy
Stream size : 84.8 MiB (8%)
Alignment : Split accross interleaves
Interleave, duration : 40 ms (1.00 video frame)
Interleave, preload duration : 500 ms
Writing library : LAME3.97
Encoding settings : -m j -V 4 -q 2 -lowpass 15.6 -b 112
Релиз:
[cybertorrent.ru].t3305.torrent 
Торрент: Зарегистрирован [ 2018-02-16 17:30 ] · F1116FD2B7D1A7236616DDAF2E0C6BA136C67969

Скачать .torrent

Скачать

45 KB

Статус: проверено
Скачан: 0 раз
Размер: 8,91 GB
Профиль [ЛС]
Показать сообщения:    

Текущее время: 27-Май 19:52

Часовой пояс: UTC ± 0



Вы не можете начинать темы
Вы не можете отвечать на сообщения
Вы не можете редактировать свои сообщения
Вы не можете удалять свои сообщения
Вы не можете голосовать в опросах
Вы не можете прикреплять файлы к сообщениям
Вы можете скачивать файлы