Статистика раздачи
Размер:  2,14 GB   |    Зарегистрирован:  3 месяца 10 дней   |    Скачан:  0 раз
Сидов:  7  [  0 KB/s  ]  
 
   
 
 

Бона ®

Пол:
Не указан
Стаж:
3 месяца 12 дней
Сообщений:
395

Оружие Победы. Щит и меч Красной Армии (4 серии из 4)
Дата/Год выпуска: 2017
Страна: Россия, ООО «Студия «Крылья», «ТРК ВС ВФ «ЗВЕЗДА»
Жанр: Документальный, вооружение, история
Продолжительность: 4 x ~ 00:38:30
Перевод: Не требуется
Режиссер: Андрей Кулясов
Телеканал: ЗВЕЗДА
Описание: Документальный сериал расскажет об образцах боевой техники, состоявших на вооружении Советской армии в годы Великой Отечественной войны.
Доп. информация: Авторство релиза - alf62

качество: SATRip
формат: AVI
Видео: 720x400 (1.80:1), 25 fps, XviD build 73 ~1799 kbps avg, 0.25 bit/pixel
Аудио: 48 kHz, AC3 Dolby Digital, 2/0 (L,R) ch, ~192.00 kbps avg

Список выпусков/серий

1. Битва за Москву
В первые недели боевых действий советское оружие зачастую не могло сдержать врага. Противник шаг за шагом приближался к Москве. И уже через месяц войны первые немецкие бомбардировщики взяли курс на столицу. А вскоре и танки вермахта оказались всего в сотне километров от города. Так за счёт чего удалось переломить ход битвы за Москву? И какое оружие помогло в этом? Истребитель МиГ-3, танк Т-60, противотанковые ружья - эти образцы оружия не столь знамениты, как штурмовик Ил-2 или легендарная «Катюша», но именно они сыграли одну из ключевых ролей в победе под Москвой.
2. У стен Сталинграда
Сталинград играл ключевую роль в плане немецкого стратегического наступления 42-го года. Это был крупный индустриальный центр. Через город проходили важные транспортные маршруты. Кроме того, падение города, носившего имя советского вождя, должно было стать, по мнению Гитлера, символом окончательного крушения СССР. И вот в середине ноября 42-го вермахт был близок к достижению своей цели. На улицах Сталинграда развернулись бои, равных которым ещё не было в истории войн. И порой всё, что было у солдата, - это его индивидуальное оружие. В таких условиях наиболее полно проявились возможности автоматического оружия - такого, как советский ППШ - пистолет-пулемёт Шпагина.
Пока красноармейцы сдерживали противника на подступах к Волге, советское командование готовило контрнаступательную операцию «Уран». К тому моменту советская промышленность уже наладила массовый выпуск тяжёлых артиллерийских орудий, таких, как гаубица-пушка МЛ-20, реактивных систем залпового огня «Катюша», танков Т-34. Во многом с учётом их возможностей и готовилась операция «Уран», победа в которой позволила Красной Армии перехватить стратегическую инициативу в войне.
3. Крушение «Цитадели»
Летом 1943-го года командование вермахта планировало вернуть стратегическую инициативу, которую Германия потеряла после поражения под Сталинградом. Наступательная операция готовилось под Курском и получила название «Цитадель». Особые надежды немцы возлагали на свои новые танки «Тигр» и «Пантера». На тот момент они превосходили лучшие советские машины по бронезащите и вооружению.
Сражение под Курском вошло в историю прежде всего, как великое танковое противостояние, и встречный танковый бой под Прохоровкой стал кульминацией этой битвы. Однако не менее грандиозное сражение развернулось и в небе. Завоевание господства в небе было ключевым фактором общего успеха. Эта задача стояла перед новыми истребителями Яковлева и Лавочкина. Кроме того, самолёты должны были сдерживать сухопутные силы немцев. В данном случае особые надежды возлагались на «летающий танк» - штурмовик Ил-2 и на новые бомбы, которые включили в состав его вооружения. Именно «Илам» удалось сорвать наступление немецких танков на ключевых участках фронта.
4. В логове врага
К началу апреля 1945-го года передовые части Красной Армии были уже в 80-ти километрах восточнее Берлина. Почти всё было готово для решающего штурма. Однако немцы на подходах к своей столице создали несколько сверхмощных оборонительных линий, а сам город был превращён в настоящую крепость. Гитлер небезосновательно считал, что такая оборона советским войскам будет не по зубам. В то же время с запада к Берлину подходили союзники СССР по той войне – армии США и Великобритании. Было очевидно, что взятие Берлина приобретает и важное политическое значение для послевоенного устройства Европы. Красной Армии надо было спешить…
К Берлинской операции советское командование привлекло свои лучшие силы и лучшее оружие: истребители Ла-7 и Як-3, фронтовые бомбардировщики Пе-2 и Ту-2, дальние бомбардировщики Ил-4, средние танки Т-34-85 и тяжёлые ИС-3, буксируемые и самоходные артиллерийские орудия. Их характеристики были одними из лучших в мире.
Казалось, такая мощь должна была мгновенно сломить сопротивление врага. Однако уже с первых часов сражения стлало понятно, что битва будет тяжёлой. И прежде, чем красное знамя Победы взвилось над Рейхстагом, советское оружие показало все свои лучшие качества, которые оно приобрело в годы Великой Отечественной.

MediaInfo

Оружие Победы. Щит и меч Красной армии\Оружие.Победы.2017.XviD.SATRip.alf62\Оружие.Победы.(1.серия).Битва.за.Москву.SATRip.alf62.avi
Формат : AVI
Формат/Информация : Audio Video Interleave
Размер файла : 550 Мбайт
Продолжительность : 38 м.
Общий поток : 2002 Кбит/сек
Программа кодирования : VirtualDubMod 1.5.10.3 | www.virtualdub-fr.org || (build 2550/release)
Библиотека кодирования : VirtualDubMod build 2550/release
Видео
Идентификатор : 0
Формат : MPEG-4 Visual
Профиль формата : Advanced Simple@L5
Параметр BVOP формата : 2
Параметр QPel формата : Нет
Параметр GMC формата : Без точки перехода
Параметр матрицы формата : Default (MPEG)
Идентификатор кодека : XVID
Идентификатор кодека/Подсказка : XviD
Продолжительность : 38 м.
Битрейт : 1800 Кбит/сек
Ширина : 720 пикселей
Высота : 400 пикселей
Соотношение сторон : 16:9
Частота кадров : 25,000 кадров/сек
Цветовое пространство : YUV
Субдискретизация насыщенности : 4:2:0
Битовая глубина : 8 бит
Тип развёртки : Прогрессивная
Метод сжатия : С потерями
Бит/(Пиксели*Кадры) : 0.250
Размер потока : 494 Мбайт (90%)
Библиотека кодирования : XviD 73
Аудио
Идентификатор : 1
Формат : AC-3
Формат/Информация : Audio Coding 3
Расширение режима : CM (complete main)
Параметр Endianness формата : Big
Идентификатор кодека : 2000
Продолжительность : 38 м.
Вид битрейта : Постоянный
Битрейт : 192 Кбит/сек
Каналы : 2 канала
Расположение каналов : Front: L R
Частота : 48,0 КГц
Битовая глубина : 16 бит
Метод сжатия : С потерями
Размер потока : 52,7 Мбайт (10%)
Выравнивание : Разделение по промежуткам
Продолжительность промежутка : 40 мс. (1,00 видеокадр)
Время предзагрузки промежутка : 500 мс.

Скриншоты

[cybertorrent.ru].t3698.torrent 
Торрент: Зарегистрирован [ 2018-02-16 23:01 ] · 36873B9C8BAB461C7CD47E5D38CC21DA93BE8829

Скачать .torrent

Скачать

12 KB

Статус: проверено
Скачан: 0 раз
Размер: 2,14 GB
Профиль [ЛС]
Показать сообщения:    

Текущее время: 27-Май 21:38

Часовой пояс: UTC ± 0



Вы не можете начинать темы
Вы не можете отвечать на сообщения
Вы не можете редактировать свои сообщения
Вы не можете удалять свои сообщения
Вы не можете голосовать в опросах
Вы не можете прикреплять файлы к сообщениям
Вы можете скачивать файлы